Бруно Фрейндлих. Разные судьбы (Михаил Фалкин) [2004, документальный, биография, культура, история, SATRip]


Статистика раздачи [Обновить пиров]
Размер:  314 MB   |    Зарегистрирован:  8 месяцев 16 дней   |    Скачан:  0 раз

Полного источника не было: Никогда

Личеров:  16  [  0 KB/s  ]   Подробная статистика пиров
 
   
 
 
 

[Цитировать]

Бруно Фрейндлих. Разные судьбы- -Год выпуска: 2004
Страна: Россия
Жанр: документальный, биография, культура, история
Продолжительность: 00:38:40
Перевод: Не требуется
Русские субтитры: нет-Режиссер: Михаил Фалкин-Описание:
Программа посвящена народному артисту СССР Бруно Артуровичу Фрейндлиху - последнему из плеяды выдающихся актеров Александринского театра, составивших славу русской актерской школы во второй половине ХХ века. О Бруно Фрейндлихе вспоминают: актрисы Нина Ургант, Валентина Панина, Татьяна Пилецкая, профессов Давид Золотницкий, режиссер Зоя Давыдова и дочери актера - Ирина и Алиса Фрейндлих. В программе представлены фрагменты спектаклей и фильмов с участием Бруно Фрейндлиха.-Качество: SATRip
Формат: AVI
Видео кодек: XviD
Аудио кодек: MPEG Layer 3-Релиз оформлен группой: -Видео: 640x480 (1.33:1), 25 fps, XviD build 50 ~996 kbps avg, 0.13 bit/pixel
Аудио: 32 kHz, MPEG Layer 3, 2 ch, ~128.00 kbps avg
-

MediaInfo

General
Complete name : F:\000\Бруно Фрейндлих. Разные судьбы\Бруно Фрейндлих. Разные судьбы.avi
Format : AVI
Format/Info : Audio Video Interleave
File size : 314 MiB
Duration : 38mn 40s
Overall bit rate : 1 135 Kbps
Writing application : VirtualDubMod 1.5.10.2 (build 2540/release)
Writing library : VirtualDubMod build 2540/release
Video
ID : 0
Format : MPEG-4 Visual
Format profile : Advanced Simple@L5
Format settings, BVOP : 1
Format settings, QPel : No
Format settings, GMC : No warppoints
Format settings, Matrix : Default (H.263)
Codec ID : XVID
Codec ID/Hint : XviD
Duration : 38mn 40s
Bit rate : 997 Kbps
Width : 640 pixels
Height : 480 pixels
Display aspect ratio : 4:3
Frame rate : 25.000 fps
Color space : YUV
Chroma subsampling : 4:2:0
Bit depth : 8 bits
Scan type : Progressive
Compression mode : Lossy
Bits/(Pixel*Frame) : 0.130
Stream size : 276 MiB (88%)
Writing library : XviD 1.2.1 (UTC 2008-12-04)
Audio
ID : 1
Format : MPEG Audio
Format version : Version 1
Format profile : Layer 3
Codec ID : 55
Codec ID/Hint : MP3
Duration : 38mn 40s
Bit rate mode : Constant
Bit rate : 128 Kbps
Channel(s) : 2 channels
Sampling rate : 32.0 KHz
Compression mode : Lossy
Stream size : 35.4 MiB (11%)
Alignment : Aligned on interleaves
Interleave, duration : 40 ms (1.00 video frame)
Interleave, preload duration : 504 ms
Writing library : LAME3.98r
Encoding settings : -m s -V 4 -q 2 -lowpass 16 -b 128

Скриншоты фильма

-Раздаю до первых 5-ти скачавших, на раздачи не возвращаюсь...-
[teatrix.ru].t20018.torrent 
Торрент: Зарегистрирован [ 2016-03-19 00:44 ] · 1A2FCD4AA7E03193317ECE6A754B726A8B37C392

Скачать .torrent

Скачать

13 KB

Статус: проверено
Скачан: 0 раз
Размер: 314 MB
terms.php



Быстрый ответ

Имя:

      
Для отправки сообщений необходимо включить JavaScript
Показать сообщения:    

Текущее время: 04-Дек 00:53

Часовой пояс: UTC + 3


Вы можете начинать темы
Вы можете отвечать на сообщения
Вы не можете редактировать свои сообщения
Вы не можете удалять свои сообщения
Вы не можете голосовать в опросах
Вы не можете прикреплять файлы к сообщениям
Вы можете скачивать файлы