Бугимен. Убийственная подборка / Boogeymen: The Killer Compilation (Flixmix) [2001, США, Ужасы, документальный, DVDRip] DVO(МЕГАПЫХАРЬ и Элис)


Статистика раздачи [Обновить пиров]
Размер:  741 MB   |    Зарегистрирован:  8 месяцев 17 дней   |    Скачан:  0 раз

Полного источника не было: Никогда

Личеров:  19  [  0 KB/s  ]   Подробная статистика пиров
 
   
 
 
 

[Цитировать]

Бугимен. Убийственная подборка / Boogeymen: The Killer Compilation
Страна: США
Жанр: Ужасы, документальный
Год выпуска: 2001
Продолжительность: 00:57:37
Перевод: Любительский (двухголосый закадровый)(МЕГАПЫХАРЬ и Элис)
Cубтитры: нет
Оригинальная аудиодорожка: нет
Режиссер: Flixmix
В ролях: Эндрю Робертсон, Грейс Кирби, Эшли Лоуренс...
Описание: Подборка из фильмов о страшнейших киномонстрах.

Сэмпл: http://sendfile.su/1070113
Качество видео: DVDRip
Формат видео: AVI
Видео: 720x544 (4:3), 25.000 fps, XviD MPEG-4 ~1 597 kbps avg, 0.163 bit/pixel
Аудио: 48 kHz, AC3 Dolby Digital, 2/0 (L,R) ch, ~192 kbps

MediaInfo

General
Complete name : C:Documents and SettingsAdmin.MICROSOF-C69A97Рабочий столBoogeymen.avi
Format : AVI
Format/Info : Audio Video Interleave
File size : 741 MiB
Duration : 57mn 37s
Overall bit rate : 1 798 Kbps
Writing application : VirtualDubMod 1.5.10.2 (build 2540/release)
Writing library : VirtualDubMod build 2540/release
Video
ID : 0
Format : MPEG-4 Visual
Format profile : Advanced Simple@L5
Format settings, BVOP : 2
Format settings, QPel : No
Format settings, GMC : No warppoints
Format settings, Matrix : Default (MPEG)
Muxing mode : Packed bitstream
Codec ID : XVID
Codec ID/Hint : XviD
Duration : 57mn 37s
Bit rate : 1 597 Kbps
Width : 720 pixels
Height : 544 pixels
Display aspect ratio : 4:3
Frame rate : 25.000 fps
Color space : YUV
Chroma subsampling : 4:2:0
Bit depth : 8 bits
Scan type : Progressive
Compression mode : Lossy
Bits/(Pixel*Frame) : 0.163
Stream size : 658 MiB (89%)
Writing library : XviD 1.2.1 (UTC 2008-12-04)
Audio
ID : 1
Format : AC-3
Format/Info : Audio Coding 3
Mode extension : CM (complete main)
Format settings, Endianness : Big
Codec ID : 2000
Duration : 57mn 37s
Bit rate mode : Constant
Bit rate : 192 Kbps
Channel(s) : 2 channels
Channel positions : Front: L R
Sampling rate : 48.0 KHz
Bit depth : 16 bits
Compression mode : Lossy
Stream size : 79.1 MiB (11%)
Alignment : Split accross interleaves
Interleave, duration : 40 ms (1.00 video frame)
Interleave, preload duration : 500 ms

Скриншот c названием фильма

Скриншоты




Релиз от:
[teatrix.ru].t20019.torrent 
Торрент: Зарегистрирован [ 2016-03-19 00:42 ] · 87A747DB0B1D903377D1D3961B5438E8C6887EA1

Скачать .torrent

Скачать

15 KB

Статус: проверено
Скачан: 0 раз
Размер: 741 MB
terms.php



Показать сообщения:    

Текущее время: 05-Дек 07:31

Часовой пояс: UTC + 3


Вы не можете начинать темы
Вы не можете отвечать на сообщения
Вы не можете редактировать свои сообщения
Вы не можете удалять свои сообщения
Вы не можете голосовать в опросах
Вы не можете прикреплять файлы к сообщениям
Вы можете скачивать файлы