Моцарт - Так поступают все (Цюрихский оперный театр; Свен-Эрик Бехтольф, Феликс Брайзах; Франц Вельзер-Мест) / Wolfgang Mozart - Cosi Fan Tutte (Zurich Opera House; Sven-Eric Bechtolf, Felix Breisach; Franz Welser-Most) [2009, Opera, Blu-ray 1080i]


 

[Цитировать]

Вольфганг Амадей Моцарт- Так поступают все / Wolfgang Amadeus Mozart - Cosi Fan Tutte
Год выпуска: 2009
Лейбл: Arthaus Musik
Страна-производитель: США
Жанр: Opera
Продолжительность: 03:20:13
Язык: Итальянский
Субтитры: Английские, французские, немецкие, итальянские, испанские, японские
Режиссер: Sven-Eric Bechtolf (Свен-Эрик Бехтольф), Felix Breisach (Феликс Брайзах)
Дирижер: Franz Welser-Möst (Франц Вельзер-Мёст)
Исполнители:
Javier Camarena (Хавьер Камарена) - Ferrando,
Ruben Drole (Рубен Дрол) - Guglielmo,
Oliver Widmer (Оливер Видмер) - Don Alfonso,
Malin Hartelius (Малин Хартелиус) - Fiordiligi,
Anna Bonitatibus (Анна Бонитатибус) - Dorabella,
Martina Janková (Мартина Янкова) - Despina
Chorus and Orchestra of the Zurich Opera House (хор и оркестр Цюрихского оперного театра)
Описание: Старый скептик и циник философ дон Альфонсо убеждает молодых офицеров Феррандо и Гульельмо, обручившихся с сестрами Фьордилиджи и Дорабеллой, что женщины легкомысленны, а их верность в лучшем случае сомнительна. Женихи решают испытать верность возлюбленных и сообщают невестам, что должны немедленно отправиться на войну. Сестры в слезах прощаются с женихами. Альфонсо удается вовлечь в игру хитрую служанку Деспину. В дом входят переодетые албанцами Феррандо и Гульельмо и начинают ухаживать за Фьордилиджи и Дорабеллой, причем каждый объясняется в любви невесте другого. Девушки с негодованием отвергают поклонников, но затем, видя, что огорченные чужеземцы готовы покончить с собой, становятся благосклонными. Первой уступает Дорабелла: она не только принимает в подарок золотое сердечко от Гульельмо, но дарит ему медальон с портретом Феррандо. После колебаний и Фьордилиджи уступает настояниям Феррандо. Юноши огорчены неверностью возлюбленных, но дон Альфонсо утешает их тем, что так поступают все женщины. Сестры готовы обвенчаться с мнимыми албанцами. Деспина, ранее переодевавшаяся в костюм доктора, чтобы лечить влюбленных, якобы принявших яд, теперь в качестве нотариуса готова составить брачный контракт. В момент его подписания раздается марш, возвещающий возвращение армии. Значит, должны вернуться и женихи. Сестры смущены. «Албанцы» исчезают, и вскоре появляются Феррандо и Гульельмо. Они разыгрывают комедию ревности, угрожая местью. Альфонсо примиряет влюбленных.

Оригинальное описание

Jealous men and unreliable women: Mozart's 'Opera buffa' Cosi fan tutte is a masterpiece of its genre. This operatic gem which is part comedy, part tragedy is a wry study in love, manipulation and trust. After having cooperated twice before (Le nozze di Figaro, Don Giovanni) Così fan tutte was the third and last collaboration of Mozart and librettist Lorenzo Da Ponte. It is a clear-sightedly view of the confusion of human relations and opens up an abyss that seems to go far beyond the framework of a 'Dramma giocoso'. In the tension between love and passion, security and self-negation, faithfulness and betrayal, the couples get lost in emotional chaos. Mozart illustrates these diverse emotions with his sublime music which is in turn poignant and stoic, heartfelt and romantic.
A fine cast enriches Mozart's stirring music. Under Franz Welser-Möst's fabulous conducting this production of the Zurich Opera House is setting musical standards. In conjunction with the director Sven-Eric Bechtolf, he has developed into one of the leading teams in contemporary music theater. A great score, a famous production and wonderful singers: this Così fan tutte live recorded at the famous Zurich Opera House is a 'must see' for opera lovers.
Recorded live at the Zurich Opera House, 2009.
Об опере
Качество видео: Blu-ray
Формат/Контейнер: BDMV
Видео кодек: MPEG4
Аудио кодек: LPCM, DTS
Видео поток: MPEG-4 Video, 1920x1080, 19477 kbps, 29.970 fps
Аудио поток: LPCM, 2304 kbps, 48 kHz, 2 ch. DTS-HD MA, 5528 kbps, 48 kHz, 8 ch

BD-Info

DISC INFO:
Disc Title: Моцарт - Так поступают все (Zurich Opera House) (2009) (Blu-ray 1080i, AVC, DTS-HD 7.1)
Disc Size: 43 697 304 220 bytes
Protection: AACS
BD-Java: No
BDInfo: 0.5.8
PLAYLIST REPORT:
Name: 00001.MPLS
Length: 3:20:13.368 (h:m:s.ms)
Size: 43 527 088 128 bytes
Total Bitrate: 28,99 Mbps
VIDEO:
Codec Bitrate Description
----- ------- -----------
MPEG-4 AVC Video 19477 kbps 1080i / 29,970 fps / 16:9 / High Profile 4.1
AUDIO:
Codec Language Bitrate Description
----- -------- ------- -----------
LPCM Audio Undetermined 2304 kbps 2.0 / 48 kHz / 2304 kbps / 24-bit
DTS-HD Master Audio Undetermined 5528 kbps 7.1 / 48 kHz / 5528 kbps / 24-bit (DTS Core: 5.1 / 48 kHz / 1509 kbps / 24-bit)
SUBTITLES:
Codec Language Bitrate Description
----- -------- ------- -----------
Presentation Graphics Italian 17,946 kbps
Presentation Graphics English 18,855 kbps
Presentation Graphics German 21,289 kbps
Presentation Graphics French 19,352 kbps
Presentation Graphics Spanish 19,299 kbps
Presentation Graphics Japanese 20,404 kbps
FILES:
Name Time In Length Size Total Bitrate
---- ------- ------ ---- -------------
00000.M2TS 0:00:00.000 3:19:58.986 43 525 963 776 29 020
00005.M2TS 3:19:58.986 0:00:14.047 1 112 064 633
00003.M2TS 3:20:13.034 0:00:00.333 12 288 295
Семпл

Скриншоты





Показать сообщения:    

Текущее время: 07-Дек 19:29

Часовой пояс: UTC + 3


Вы не можете начинать темы
Вы не можете отвечать на сообщения
Вы не можете редактировать свои сообщения
Вы не можете удалять свои сообщения
Вы не можете голосовать в опросах
Вы не можете прикреплять файлы к сообщениям
Вы не можете скачивать файлы