(Classical/Choral) the Best Choral Album in the World.. Ever! - 2005, FLAC (image+.cue) lossless


Статистика раздачи [Обновить пиров]
Размер:  696 MB   |    Зарегистрирован:  8 месяцев 19 дней   |    Скачан:  2 раза

Полного источника не было: 1 месяц 4 дня

Личеров:  21  [  0 KB/s  ]   Подробная статистика пиров
 
   
 
 
 

[Цитировать]

the Best Choral Album in the World.. Ever!
Жанр: Classical/Choral
Страна-производитель диска: EU
Год издания диска: 2005
Издатель (лейбл): Angel Records
Номер по каталогу: 724356701427
Аудиокодек: FLAC
Тип рипа: image+.cue
Битрейт аудио: lossless
Продолжительность: 02:34:44
Источник: собственный рип
Наличие сканов в содержимом раздачи: да
Треклист:

CD1

01. Antonio Vivaldi - Gloria In Excelsis Deo
Academy And Chorus Of St. Martin In The Fields
02. Johann Sebastian Bach - Jesu, Joy Of Man's Desiring
Choir Of King's College, Cambridge, Academy Of St. Martin In The Fields
Conductor – Sir David Willcocks
03. Gearge Frideric Handel - Zadok The Priest
Ambrosian Singers, Menuhin Festival Orchestra
Conductor – Yehudi Menuhin
04. Gerald Finley - Miserere Mei, Deus
Choir Of King's College, Cambridge
Conductor – Stephen Cleobury
Treble Vocals – Timothy Beasley
MurrayVocals [Cantor] – Gerald Finley
05. Gregorian Chant (Traditional) - Veni Creator Spiritus
Choir Of The Monks Of The Benedictine Monastery Of Santo Domingo De Silos
Conductor – Ismael Fernández De La Cuesta
06. Wolfgang Amadeus Mozart - Lacrimosa
London Philharmonic Choir And Orchestra
Conductor – Franz Welser-Möst
Organ – David Bell
07. Handel - For Unto Us A Child Is Born
Ambrosian Singers, English Chamber Orchestra
Conductor – Sir Charles Mackerras
08. Franz Joseph Haydn - The Heavens Are Telling
Choir Of King's College, Cambridge, Academy Of St. Martin In The Fields
Baritone Vocals – John Shirley-Quirk
Conductor – Sir David Willcocks
Soprano Vocals – Heather Harper
Tenor Vocals – Robert Tear
09. Cesar Franck - Panis Angelicus
Hallé Chorus And Orchestra
Conductor – Maurice Handford
10. Sergei Rachmaninov - Ave Maria
Groupe Vocal De France
Conductor – John Poole
11. Ludwig van Beethoven - Ode To Joy
Westminster Choir, Philadelphia Orchestra,
Bass Vocals – James Morris
Conductor – Riccardo Muti
12.Giuseppe Verdi - Va, Pensiero
Chorus And Orchestra Of The Royal Opera House, Covent Gardens
Conductor – Bernard Haitink
13. Alexander Borodin - Chorus Of Slave Girls
Chorus And Orchestra Of The National Theatre Of Sofia
Conductor – Jerzy Semkow
14. Amadeo Vives - Coro De Románticos
Coro Cantores De Madrid, Orquesta De Conciertos De Madrid
Conductor – Pablo Sorozabal
15. Gabriel Faure - In Paradisum
Choir Of King's College, Cambridge, English Chamber Orchestra
Conductor – Stephen Cleobury
Organ – Peter Barley
Violin – Jose-Luis Garcia
16. Henryk Gorecki - Totus Tuus
Choir Of King's College, Cambridge
Conductor – Stephen Cleobury
17. John Tavener - Song For Athene
Winchester Cathedral Choir
Conductor – David Hill
18. Paul McCartney - Celebration
London Symphony Orchestra And Chorus
Conductor – Lawrence Foster
19. Hubert Parry - Jerusalem
Royal Choral Society
Conductor – Andrew Davis

CD2

01. J. S. Bach - Zion Hort Die Wächter
South German Madrigal Choir, Consortium Musicum
Conductor – Wolfgang Gonnenwein
02. Marc-Antoine Charpentier - Pleni Sunt Coeli Et Terra
Choir Of King's College, Cambridge, Academy Of St. Martin In The Fields
Alto Vocals – Charles BrettBass
Vocals – Stephen Roberts (2)
Conductor – Philip Ledger
Soprano Vocals – Eiddwen Harrhy, Dame Felicity Lott
Tenor Vocals – Ian Partridge
03. Handel - Hallelujah Chorus
Ambrosian Singers, English Chamber Singers
Conductor – Sir Charles Mackerras
04. Henry Purcell - Thou Knowest, Lord
Choir Of King's College, Cambridge, Philip Jones Brass Ensemble
Conductor – Philip Ledger
05. Gregorian Chant (traditional) Veni Sancte Spiritus
Choir Of The Monks Of The Benedictine Monastery Of Santo Domingo De Silos
06. Haydn - Awake The Harp
City Of Birmingham Symphony Orchestra And Chorus
Conductor – Sir Simon Rattle
07. Felix Mendelssohn - And Then Shall Your Light Break Forth
New Philharmonia Chorus And Orchestra
Conductor – Rafael Fruhbeck De Burgos
08. Hector Berlioz - L'Adieu Des Bergers
Chœurs Rene Duclos, Orchestre De La Societe Des Concerts Du Conservatoire
Conductor – Andre Cluytens
09. Maurice Durufle - Agnus Dei
Choir Of King's College, Cambridge8, English Chamber Orchestra
Conductor – Stephen Cleobury
Organ – Peter Barley
10. Faure - Cantique De Jean Racine
Monks And Choirboys Of Downside Abbey
11. Mozart - Ave Verum Corpus
Schutz Consort, London Classical Players
Conductor – Sir Roger Norrington
12. Richard Wagner - Darf Nun Dich, O Heimat
Bavarian State Opera Chorus, Munich, Bavarian State Symphony Orchestra Beglückt
Conductor – Robert Heger
13.Verdi - Vedi! Le Fosche Notturne Spoglie
Chorus And Orchestra Of The Royal Opera House, Covent Garden
Conductor – Bernard Haitink
14. Francis Poulenc - Laudamus Te
French National Orchestra
15. Leonard Bernstein - Chichester Psalms
Choir Of King's College, Cambridge
Choir Of King's College, Cambridge
Alto Vocals – Peter WinnBass
Vocals – Daniel SladdenHarp – Rachel Masters
Organ – Peter BarleyPercussion – David Corkhill
Tenor Vocals – John BowleyTreble Vocals – Michael Pearce
16. Tavener - The Lamb
Vasari Singers
Conductor – Jeremy Backhouse
17.Samuel Barber - Agnus Dei
Winchester Cathedral Choir
Conductor – David Hill
18. John Rutter - Requiem Aeternam
Choir Of King's College, Cambridge, City Of London Sinfonia
Conductor – Stephen Cleobury
19. Verdi - Dies Irae
Philharmonia Chorus And Orchestra
Conductor – Carlo Maria Giulini
20. Carl Orff - O Fortuna
London Philharmonic Choir And Orchestra
Conductor – Franz Welser-Most
21.Edward Elgar - Pomp And Circumstance March No. 1 -Land Of Hope And Glory
Royal Choral Society, London Philharmonic Orchestra
Conductor – Andrew Davis

Лог создания рипа

(CD 1)
Exact Audio Copy V1.0 beta 4 from 7. December 2014
Отчёт EAC об извлечении, выполненном 6. января 2015, 15:40
Various Artists / The Best Choral Album in the World... Ever!
Дисковод: Optiarc DVD RW AD-5200S Adapter: 1 ID: 1
Режим чтения : Достоверность
Использование точного потока : Да
Отключение кэша аудио : Да
Использование указателей C2 : Нет
Коррекция смещения при чтении : 48
Способность читать области Lead-in и Lead-out : Нет
Заполнение пропущенных сэмплов тишиной : Да
Удаление блоков с тишиной в начале и конце : Нет
При вычислениях CRC использовались нулевые сэмплы : Да
Интерфейс : Установленный внешний ASPI-интерфейс
Выходной формат : Пользовательский кодировщик
Выбранный битрейт : 768 kBit/s
Качество : Высокий
Добавление ID3-тега : Нет
Утилита сжатия : C:\Program Files\Exact Audio Copy\Flac\flac.exe
Дополнительные параметры : : -V -8 -T "Date=%year%" -T "Genre=%genre%" %source%
TOC извлечённого CD
Трек | Старт | Длительность | Начальный сектор | Конечный сектор
---------------------------------------------------------------------
1 | 0:00.00 | 2:26.70 | 0 | 11019
2 | 2:26.70 | 3:34.00 | 11020 | 27069
3 | 6:00.70 | 5:47.57 | 27070 | 53151
4 | 11:48.52 | 5:50.10 | 53152 | 79411
5 | 17:38.62 | 2:40.38 | 79412 | 91449
6 | 20:19.25 | 3:01.42 | 91450 | 105066
7 | 23:20.67 | 4:24.03 | 105067 | 124869
8 | 27:44.70 | 4:51.12 | 124870 | 146706
9 | 32:36.07 | 4:58.63 | 146707 | 169119
10 | 37:34.70 | 2:42.67 | 169120 | 181336
11 | 40:17.62 | 3:24.20 | 181337 | 196656
12 | 43:42.07 | 5:32.35 | 196657 | 221591
13 | 49:14.42 | 3:02.10 | 221592 | 235251
14 | 52:16.52 | 5:12.35 | 235252 | 258686
15 | 57:29.12 | 3:31.00 | 258687 | 274511
16 | 61:00.12 | 4:12.03 | 274512 | 293414
17 | 65:12.15 | 6:14.45 | 293415 | 321509
18 | 71:26.60 | 4:09.45 | 321510 | 340229
19 | 75:36.30 | 2:28.15 | 340230 | 351344
Характеристики диапазона извлечения и сообщения об ошибках
Выбранный диапазон
Имя файла F:\Various Artists - The Best Choral Album in the World... Ever!.wav
Пиковый уровень 98.8 %
Скорость извлечения 4.4 X
Качество диапазона 100.0 %
CRC теста FE077F6C
CRC копии FE077F6C
Копирование... OK
Ошибок не произошло
Конец отчёта
==== Контрольная сумма отчёта 16CFAE61ABE859C6330A97DFD9C5082F64946DC6BE3A6B60390A8765595AAA7C ====
CD 2
Exact Audio Copy V1.0 beta 4 from 7. December 2014
Отчёт EAC об извлечении, выполненном 6. января 2015, 15:40
Various Artists / The Best Choral Album in the World... Ever!
Дисковод: Optiarc DVD RW AD-5200S Adapter: 1 ID: 1
Режим чтения : Достоверность
Использование точного потока : Да
Отключение кэша аудио : Да
Использование указателей C2 : Нет
Коррекция смещения при чтении : 48
Способность читать области Lead-in и Lead-out : Нет
Заполнение пропущенных сэмплов тишиной : Да
Удаление блоков с тишиной в начале и конце : Нет
При вычислениях CRC использовались нулевые сэмплы : Да
Интерфейс : Установленный внешний ASPI-интерфейс
Выходной формат : Пользовательский кодировщик
Выбранный битрейт : 768 kBit/s
Качество : Высокий
Добавление ID3-тега : Нет
Утилита сжатия : C:\Program Files\Exact Audio Copy\Flac\flac.exe
Дополнительные параметры : : -V -8 -T "Date=%year%" -T "Genre=%genre%" %source%
TOC извлечённого CD
Трек | Старт | Длительность | Начальный сектор | Конечный сектор
---------------------------------------------------------------------
1 | 0:00.00 | 2:26.70 | 0 | 11019
2 | 2:26.70 | 3:34.00 | 11020 | 27069
3 | 6:00.70 | 5:47.57 | 27070 | 53151
4 | 11:48.52 | 5:50.10 | 53152 | 79411
5 | 17:38.62 | 2:40.38 | 79412 | 91449
6 | 20:19.25 | 3:01.42 | 91450 | 105066
7 | 23:20.67 | 4:24.03 | 105067 | 124869
8 | 27:44.70 | 4:51.12 | 124870 | 146706
9 | 32:36.07 | 4:58.63 | 146707 | 169119
10 | 37:34.70 | 2:42.67 | 169120 | 181336
11 | 40:17.62 | 3:24.20 | 181337 | 196656
12 | 43:42.07 | 5:32.35 | 196657 | 221591
13 | 49:14.42 | 3:02.10 | 221592 | 235251
14 | 52:16.52 | 5:12.35 | 235252 | 258686
15 | 57:29.12 | 3:31.00 | 258687 | 274511
16 | 61:00.12 | 4:12.03 | 274512 | 293414
17 | 65:12.15 | 6:14.45 | 293415 | 321509
18 | 71:26.60 | 4:09.45 | 321510 | 340229
19 | 75:36.30 | 2:28.15 | 340230 | 351344
Характеристики диапазона извлечения и сообщения об ошибках
Выбранный диапазон
Имя файла F:\Various Artists - The Best Choral Album in the World... Ever!.wav
Пиковый уровень 98.8 %
Скорость извлечения 4.4 X
Качество диапазона 100.0 %
CRC теста FE077F6C
CRC копии FE077F6C
Копирование... OK
Ошибок не произошло
Конец отчёта
==== Контрольная сумма отчёта 16CFAE61ABE859C6330A97DFD9C5082F64946DC6BE3A6B60390A8765595AAA7C ====
[teatrix.ru].t20022.torrent 
Торрент: Зарегистрирован [ 2016-03-19 00:44 ] · AA7198231D402A568471C27B9D8B5875CB22C161

Скачать .torrent

Скачать

15 KB

Статус: проверено
Скачан: 2 раз
Размер: 696 MB
terms.php



Быстрый ответ

Имя:

      
Для отправки сообщений необходимо включить JavaScript
Показать сообщения:    

Текущее время: 07-Дек 21:24

Часовой пояс: UTC + 3


Вы можете начинать темы
Вы можете отвечать на сообщения
Вы не можете редактировать свои сообщения
Вы не можете удалять свои сообщения
Вы не можете голосовать в опросах
Вы не можете прикреплять файлы к сообщениям
Вы можете скачивать файлы