Дитя интернета: история Аарона Шварца / Интернет-мальчик / The Internet's Own Boy: The Story of Aaron Swartz (Брайан Наппенбергер / Brian Knappenberger) [2014, документальный, биографический, DVB] DVO (SDI Media)


Статистика раздачи [Обновить пиров]
Размер:  1.65 GB   |    Зарегистрирован:  8 месяцев 18 дней   |    Скачан:  0 раз

Полного источника не было: Никогда

Личеров:  9  [  0 KB/s  ]   Подробная статистика пиров
 
   
 
 
 

[Цитировать]

Дитя интернета: история Аарона Шварца
The Internet's Own Boy: The Story of Aaron Swartz- Дата/Год выпуска: 2014
Страна: США
Жанр: документальный, биографический
Продолжительность: 01:40:32
Перевод: Профессиональный (двухголосый закадровый)
Доп. инфо о переводе: Компания SDI Media по заказу канала "24ДОК"
Русские субтитры: нет
Режиссер: Брайан Наппенбергер / Brian Knappenberger
Телеканал: 24ДОКОписание: Фильм рассказывает об Аароне Шварце — американском вундеркинде и интернет-активисте, который покончил с собой в январе 2013 года в возрасте 26 лет. В 12 лет Шварц запустил проект TheInfo (предшественник Википедии). Позже он участвовал в развитии проектов, без которых невозможно представить современный интернет: Reddit, RSS, Creative Commons и Open Library. Он также был основателем и исполнительным директором некоммерческой организации Demand Progress, которая требует от властей модернизации законодательства в соответствии с развитием информационных технологий.
С 2012 года Аарон Шварц находился под следствием по уголовному делу за нелегальное скачивание более 4 млн документов из базы данных JSTOR — архива академических журналов и научных работ, хотя JSTOR — некоммерческая цифровая библиотека, и документы доступны бесплатно в онлайне.
JSTOR отказалась от претензий к Шварцу, но прокуратура приняла решение продолжить дело. В сентябре 2012 года разработчику выдвинули обвинение с 13-ю пунктами, по которым ему грозило до 35-ти лет тюремного заключения.
Доп. информация: DVB-S
Награды: номинация на Гран-при жюри за лучший документальный фильм Sundance Film Festival 2014; награда Writers Guild of America 2014 за "Лучший сценарий документального фильма"; приз молодежного жюри Sheffield International Documentary Festival 2014; приз за лучший документальный фильм Traverse City Film Festival 2014.

качество: DVB
формат: MKV
Видео: MPEG Video 2, 720x576@768x576 (4:3), 25 fps, ~2106 kbps avg, 0.203 bit/pixel
Аудио: MPEG Audio 2, 2 ch, 48 kHz, ~192.00 kbps avg

MediaInfo

Общее
Уникальный идентификатор : 220807772619598975847771017127388878533 (0xA61E07B6376D887AA9A57009CEFD96C5)
Полное имя : E:\My Torrents 2\[apreder]The_Internet's_Own_Boy_The_Story_of_Aaron_Swartz(2014)DVB.mkv
Формат : Matroska
Версия формата : Version 2
Размер файла : 1,65 Гбайт
Продолжительность : 1 ч. 40 м.
Режим общего битрейта : Переменный
Общий поток : 2344 Кбит/сек
Дата кодирования : UTC 2015-01-06 15:32:27
Программа кодирования : mkvmerge v7.5.0 ('Glass Culture') 64bit built on Jan 4 2015 16:48:44
Библиотека кодирования : libebml v1.3.1 + libmatroska v1.4.2
Видео
Идентификатор : 1
Формат : MPEG Video
Версия формата : Version 2
Профиль формата : Main@Main
Параметр BVOP формата : Да
Параметр матрицы формата : Выборочная
Параметр GOP формата : M=3, N=36
Format_Settings_PictureStructure : Frame
Идентификатор кодека : V_MPEG2
Идентификатор кодека/Информация : MPEG 1 or 2 Video
Продолжительность : 1 ч. 40 м.
Вид битрейта : Переменный
Битрейт : 2106 Кбит/сек
Максимальный битрейт : 15,0 Мбит/сек
Ширина : 720 пикселей
Высота : 576 пикселей
Соотношение сторон : 4:3
Режим частоты кадров : Постоянный
Частота кадров : 25,000 кадров/сек
Стандарт вещания : PAL
Цветовое пространство : YUV
Субдискретизация насыщенности : 4:2:0
Битовая глубина : 8 бит
Тип развёртки : Чересстрочная
Порядок развёртки : Верхнее поле первое
Метод сжатия : С потерями
Бит/(Пиксели*Кадры) : 0.203
Размер потока : 1,48 Гбайт (90%)
Default : Да
Forced : Нет
Аудио
Идентификатор : 2
Формат : MPEG Audio
Версия формата : Version 1
Профиль формата : Layer 2
Идентификатор кодека : A_MPEG/L2
Идентификатор кодека/Подсказка : MP2
Продолжительность : 1 ч. 40 м.
Вид битрейта : Постоянный
Битрейт : 192 Кбит/сек
Каналы : 2 канала
Частота : 48,0 КГц
Метод сжатия : С потерями
Размер потока : 138 Мбайт (8%)
Язык : Russian
Default : Да
Forced : Нет

Скриншоты


Резервные скриншоты


-[2'030]
[teatrix.ru].t20025.torrent 
Торрент: Зарегистрирован [ 2016-03-19 00:47 ] · ADCEC57331DB119D2B2D94EC0BF5B91C7E07105C

Скачать .torrent

Скачать

17 KB

Статус: проверено
Скачан: 0 раз
Размер: 1.65 GB
terms.php



Быстрый ответ

Имя:

      
Для отправки сообщений необходимо включить JavaScript
Показать сообщения:    

Текущее время: 06-Дек 22:56

Часовой пояс: UTC + 3


Вы можете начинать темы
Вы можете отвечать на сообщения
Вы не можете редактировать свои сообщения
Вы не можете удалять свои сообщения
Вы не можете голосовать в опросах
Вы не можете прикреплять файлы к сообщениям
Вы можете скачивать файлы