(Classical) [LP] [24/48] W. A. Mozart - Symphony No 40,No 24 (Moscow Chamber Orchestra) - 1974, FLAC (tracks+.cue)


Статистика раздачи [Обновить пиров]
Размер:  501 MB   |    Зарегистрирован:  8 месяцев 18 дней   |    Скачан:  0 раз

Полного источника не было: Никогда

Личеров:  3  [  0 KB/s  ]   Подробная статистика пиров
 
   
 
 
 

[Цитировать]

W. A. Mozart - Symphony No 40,No 24 (Moscow Chamber Orchestra)
Жанр: Classical
Носитель: LP
Год выпуска: 1974
Лейбл: Melodya (VSG)
Страна-производитель: USSR
Аудио кодек: FLAC
Тип рипа: tracks+.cue
Формат записи: 32/192
Формат раздачи: 24/48
Продолжительность: 46.51 min
Треклист:
Symphony No 40
Side one:
01. Allegro moderato
02. Andante Menuetto
Side two:
03. Finale
04. Allegro assai
Symphony No 24
05. Allegro spiritoso
06. Andantino grazioso
07. Allegro
Источник оцифровки: автором раздачи
Код класса состояния винила: NM
Устройство воспроизведения: Электроника ЭП 017С
Головка звукоснимателя: Audio-Technica AT95
Предварительный усилитель: Бриг-001
АЦП: VIA HD audio device
Программа-оцифровщик: Izotope RX 4 Advanced
Обработка: Manual

Спектр+АЧХ+Уровень записи

DR=13

foobar2000 1.1.10 / Dynamic Range Meter 1.1.1
log date: 2015-01-06 19:44:01
--------------------------------------------------------------------------------
Analyzed: Moscow Chamber Orchestra / Symphony No 40,No 24
--------------------------------------------------------------------------------
DR Peak RMS Duration Track
--------------------------------------------------------------------------------
DR12 -6.42 dB -23.06 dB 8:43 ?-Allegro moderato
DR15 -6.95 dB -28.96 dB 15:36 ?-Andante Menuetto
DR12 -7.22 dB -23.29 dB 4:23 ?-Finale
DR12 -5.83 dB -23.64 dB 9:16 ?-Allegro assai
DR13 -7.97 dB -24.41 dB 4:33 ?-Allegro spiritoso
DR13 -18.56 dB -35.38 dB 2:36 ?-Andantino grazioso
DR13 -7.29 dB -25.13 dB 1:43 ?-Allegro
--------------------------------------------------------------------------------
Number of tracks: 7
Official DR value: DR13
Samplerate: 48000 Hz
Channels: 2
Bits per sample: 24
Bitrate: 1476 kbps
Codec: FLAC
================================================================================

Back & Disc

[teatrix.ru].t20026.torrent 
Торрент: Зарегистрирован [ 2016-03-19 00:47 ] · 22EDBE41BB91839B0EE1288CFE914C95FC915742

Скачать .torrent

Скачать

21 KB

Статус: проверено
Скачан: 0 раз
Размер: 501 MB
terms.php



Быстрый ответ

Имя:

      
Для отправки сообщений необходимо включить JavaScript
Показать сообщения:    

Текущее время: 06-Дек 11:14

Часовой пояс: UTC + 3


Вы можете начинать темы
Вы можете отвечать на сообщения
Вы не можете редактировать свои сообщения
Вы не можете удалять свои сообщения
Вы не можете голосовать в опросах
Вы не можете прикреплять файлы к сообщениям
Вы можете скачивать файлы