Три сестры / Я вас не помню собственно… (Юрий Погребничко) [2013 г., драма, экранизация, SATRip] Московский театр "Около дома Станиславского"


 

[Цитировать]

Три сестры / Я вас не помню собственно… Название театра: Московский театр "Около дома Станиславского".
Год выпуска: 2013.
Жанр: драма, экранизация.
Продолжительность: 01:53:23.
Режиссер: народный артист России Юрий Погребничко.
Действующие лица и исполнители:
Три сестры - заслуженная артистка России Лилия Загорская, Татьяна Лосева, Елена Павлова,
Ирина - Мария Погребничко,
Маша - Элен Касьяник,
Ольга - Александра Тюфтей,
Прозоров Андрей Сергеевич - Алексей Шендрик,
Наталья Ивановна, его невеста, потом жена - Марьяна Кирсанова,
Кулыгин Федор Ильич, учитель гимназии, муж Маши - Юрий Павлов,
Вершинин Александр Игнатьевич, подполковник, батарейный командир - народный артист РСФСР Георгий Тараторкин (театр им. Моссовета),
Тузенбах Николай Львович, барон, поручик - Илья Окс,
Соленый Василий Васильевич, штабс-капитан - Дмитрий Богдан,
Чебутыкин Иван Романович, военный доктор - Сергей Каплунов,
Родэ Владимир Карлович - Александр Орав,
Федотик Алексей Петрович - Никита Логинов,
Ферапонт, сторож из земской управы, старик - Константин Желдин,
Анфиса, горничная - Ольга Бешуля,
Музыканты - Ольга Бешуля, Александр Кулаков.
Описание:
У Юрия Погребничко есть свой список пьес, которые он ставит на протяжении всей своей театральной деятельности. В списке есть и пьеса А.П.Чехова "Три сестры". Это четвертая версия Ю. Погребничко знаменитой пьесы. Первая версия в соавторстве с Ю.П.Любимовым была в театре на Таганке. Три других версии поставлены на сцене театра Около дома Станиславского (первоначальное название театра – Молодёжный театр на Красной Пресне), который возглавляет более 20 лет сам Юрий Погребничко.
Режиссер совмещает настоящее и будущее сестер Прозоровых. Их в спектакле не три — их шесть.
Они кажутся тенями из прошлого, не осознавая, чувствуют приближение конца и как мотыльки летят на огонь, подчинившись стихии природы. Они безусловно не попадут в Москву. Что их ждет? Топка истории. Какой уж тут монолог о том, что будем жить, как прекрасно играет музыка! Они вползают в век, в котором предстоит в лучшем случае выживать, доживать, но не жить.

Дополнительная информация:
Страна: Россия .
Выпущено: Культура.рф.
Автор: Антон Чехов.
Художник по костюмам: Надежда Бахвалова.
Премьера возобновленного спектакля состоялась 16 марта 2013 года.

О спектакле.
Релиз

Качество видео:...SATRip
Формат:.................AVI
Видео:..720x400 (1.80:1), 25 fps, DivX Codec 6.8.3 ~1702 kbps avg, 0.24 bit/pixel
Аудио:..44.100 kHz, MPEG Layer 3, 2 ch, ~128.00 kbps avg

Отчет MediaInfo

Общее
Полное имя : Tri.sestry_Moskovskij.teatr.Okolo.doma.Stanislavskogo.2013.XvD.SATRip.fenixclub.avi
Формат : AVI
Формат/Информация : Audio Video Interleave
Размер файла : 1,46 Гбайт
Продолжительность : 1 ч. 53 м.
Общий поток : 1840 Кбит/сек
Программа кодирования : VirtualDubModRus 1.5.10.2 (build 2542/release)
Библиотека кодирования : VirtualDub build 32842/release
Видео
Идентификатор : 0
Формат : MPEG-4 Visual
Параметр BVOP формата : 1
Параметр QPel формата : Нет
Параметр GMC формата : Без точки перехода
Параметр матрицы формата : Default (H.263)
Режим смешивания : Сжатый битовый поток
Идентификатор кодека : DX50
Идентификатор кодека/Подсказка : DivX 5
Продолжительность : 1 ч. 53 м.
Битрейт : 1702 Кбит/сек
Ширина : 720 пикселей
Высота : 400 пикселей
Соотношение сторон : 16:9
Частота кадров : 25,000 кадров/сек
Цветовое пространство : YUV
Субдискретизация насыщенности : 4:2:0
Битовая глубина : 8 бит
Тип развёртки : Прогрессивная
Метод сжатия : С потерями
Бит/(Пиксели*Кадры) : 0.236
Размер потока : 1,35 Гбайт (93%)
Библиотека кодирования : DivX 6.8.3-6.8.4 (UTC 2008-06-07)
Аудио
Идентификатор : 1
Формат : MPEG Audio
Версия формата : Version 1
Профиль формата : Layer 3
Режим : Joint stereo
Расширение режима : MS Stereo
Идентификатор кодека : 55
Идентификатор кодека/Подсказка : MP3
Продолжительность : 1 ч. 53 м.
Вид битрейта : Постоянный
Битрейт : 128 Кбит/сек
Каналы : 2 канала
Частота : 44,1 КГц
Метод сжатия : С потерями
Размер потока : 104 Мбайт (7%)
Выравнивание : Разделение по промежуткам
Продолжительность промежутка : 40 мс. (1,00 видеокадр)
Время предзагрузки промежутка : 500 мс.
Библиотека кодирования : LAME3.98

Скриншоты


Альтернативный хост





Показать сообщения:    

Текущее время: 05-Дек 23:39

Часовой пояс: UTC + 3


Вы не можете начинать темы
Вы не можете отвечать на сообщения
Вы не можете редактировать свои сообщения
Вы не можете удалять свои сообщения
Вы не можете голосовать в опросах
Вы не можете прикреплять файлы к сообщениям
Вы не можете скачивать файлы