Марина Неёлова. Это было. Это есть... (4 части из 4-х) (Юрий Поскакухин)[2015, Документальный, Воспоминания, DVB]


Статистика раздачи [Обновить пиров]
Размер:  1.44 GB   |    Зарегистрирован:  8 месяцев 15 дней   |    Скачан:  0 раз

Полного источника не было: Никогда

Личеров:  9  [  0 KB/s  ]   Подробная статистика пиров
 
   
 
 
 

[Цитировать]

Марина Неёлова. Это было. Это есть... (4 части из 4-х)
Год выпуска: 2015
Страна: Россия
Телеканал: Культура
Жанр: Документальный, Воспоминания
Режиссёр: Юрий Поскакухин
Продолжительность: ~ 00:26:00 / часть
качество: DVB
формат: TS
Видео: AVC (H264) 720x576 25.00fps 1 752 Kbps
Аудио: MPEG Audio Layer 2 48000Hz stereo 128 Kbps
Описание: Марина Неёлова рассказывает о знаменитых, легендарных артистах, с которыми ей довелось работать: Фаине Раневской, Валентине Гафте, Нине Дорошиной.

Список частей

1 часть. О легендарной Фаине Раневской, с которой Марина Неелова была дружна последние годы жизни выдающейся актрисы. "Я открыла свою старую тетрадку и переписала из нее почти все, что записано мной сразу после встреч с Фаиной Георгиевной, - говорит актриса. - Это память, а память не нуждается в шлифовке". Рассказ Неёловой о Раневской - это рассказ о сложной личности, обаяние которой заключалось именно в ее сложности.
2 часть. Продолжение рассказа о Фаине Раневской. Марина Неелова вспоминает о своих встречах с Раневской в мельчайших подробностях: воспроизводит своеобразие жестов, взглядов Раневской, мы слышим знакомые обертоны речи... Неелова и сейчас восхищается тем, как в этой личности сочетались вроде бы несочетаемые качества - острый аналитический ум и детская застенчивость, благородство и обидчивость...
3 часть. О любимом партнере по сцене театра "Современник" Валентине Гафте. "Гафт поражает меня своей парадоксальностью и непредсказуемостью, - признается актриса. - Он для меня как партнер и прекрасен, и опасен одновременно". Актриса расскажет о совместной работе с Гафтом в спектаклях "Современника": "Валентин и Валентина", "Три сестры", "Кто боится Вирджинии Вульф" и "Вишневый сад".
4 часть. Об одной из самых любимых актрис, коллег по "Современнику" - Нине Дорошиной. Каждый раз, видя Дорошину на сцене, Неелова испытывает чувство, близкое к потрясению. "Она, как кошка. Переиграть ее невозможно. Такова ее неповторимая актерская природа, необыкновенный страстный темперамент. Она способна перейти из одного состояния в другое за долю секунды", - так говорит Неелова о своей коллеге.

MediaInfo

General
ID : 1 (0x1)
Complete name : H:\Торрент\Мои раздачи\ТВ\Культура\Марина Неелова. Это было. Это есть... - 2015\Марина Неелова. Это было. Это есть... - 2015\1 - Фаина Раневская.ts
Format : MPEG-TS
File size : 368 MiB
Duration : 25mn 59s
Overall bit rate mode : Variable
Overall bit rate : 1 979 Kbps
Video
ID : 602 (0x25A)
Menu ID : 6 (0x6)
Format : AVC
Format/Info : Advanced Video Codec
Format version : Version 2
Format profile : Main@L3.0
Format settings, CABAC : Yes
Format settings, ReFrames : 4 frames
Codec ID : 27
Duration : 25mn 59s
Bit rate : 1 752 Kbps
Maximum bit rate : 1 900 Kbps
Width : 720 pixels
Height : 576 pixels
Display aspect ratio : 4:3
Frame rate : 25.000 fps
Standard : PAL
Color space : YUV
Chroma subsampling : 4:2:0
Bit depth : 8 bits
Scan type : Interlaced
Bits/(Pixel*Frame) : 0.169
Stream size : 326 MiB (89%)
Color primaries : BT.601 PAL
Transfer characteristics : BT.470 System B, BT.470 System G
Matrix coefficients : BT.601
Audio
ID : 603 (0x25B)
Menu ID : 6 (0x6)
Format : MPEG Audio
Format version : Version 1
Format profile : Layer 2
Codec ID : 4
Duration : 25mn 59s
Bit rate mode : Constant
Bit rate : 128 Kbps
Maximum bit rate : 131 Kbps
Channel count : 2 channels
Sampling rate : 48.0 KHz
Compression mode : Lossy
Delay relative to video : 172ms
Stream size : 23.8 MiB (6%)
Language : Russian
Menu
ID : 601 (0x259)
Menu ID : 6 (0x6)
Duration : 25mn 59s
List : 602 (0x25A) (AVC) / 603 (0x25B) (MPEG Audio, Russian)
Language : / Russian
Maximum bit rate : 2107200

Внимание! Раздача ведётся путём добавления новых выпусков

Внимание! Раздача ведётся путём добавления новых выпусков; при каждом добавлении создётся новый торрент. Чтобы начать докачку нового выпуска, пользователям необходимо сделать следующее:
(1) остановить скачивание,
(2) удалить старый торрент у себя из клиента (старые выпуски удалять не надо),
(3) скачать новый торрент и запустить его у себя в клиенте вместо старого, при этом указать клиенту путь в старую папку куда и должно происходить скачивание новых выпусков.
Ваш клиент при этом должен произвести хеширование (проверку) старой папки (если не производит сам - помогите ему сделать это), и будет докачивать только те выпуски которых у вас ещё нет. Старые выпуски при этом не удаляются, а продолжают раздаваться!
Eсли вы уже удалили старые выпуски, то предотвратить повторную закачку старых выпусков можно, отжав галочку в соответсвующих местах при запуске нового торрента. По возможности, желательно не удалять старые выпуски как можно дольше чтобы релизёр не столько продолжал раздавать старые выпуски, а смог сконцентрироваться на новых.
[teatrix.ru].t20030.torrent 
Торрент: Зарегистрирован [ 2016-03-19 00:47 ] · EA20371ECBA66A83B901807B1B2C1E28B9E498D1

Скачать .torrent

Скачать

15 KB

Статус: проверено
Скачан: 0 раз
Размер: 1.44 GB
terms.php



Быстрый ответ

Имя:

      
Для отправки сообщений необходимо включить JavaScript
Показать сообщения:    

Текущее время: 03-Дек 09:49

Часовой пояс: UTC + 3


Вы можете начинать темы
Вы можете отвечать на сообщения
Вы не можете редактировать свои сообщения
Вы не можете удалять свои сообщения
Вы не можете голосовать в опросах
Вы не можете прикреплять файлы к сообщениям
Вы можете скачивать файлы