(Classical) From Budapest to Viena - Budapest Gypsy Symphony Orchestra (J.Brahms, J.Hubay, Z.Horwath, V.Monty, P.d.Sarasate, G.Bizet, J.Strauss, J.Strauss II. G.Dinicu, C.D.Maequina, А.Хачатурян) - 2007, FLAC (image+.cue) lossless


 

[Цитировать]

From Budapest to Viena -
Budapest Gypsy Symphony Orchestra

A.Khatchaturian, J.Brahms, J.Hubay, Z.Horwath, V.Monty, P.d.Sarasate,
G.Bizet, J.Strauss, J.Strauss II. G.Dinicu, C.D.Maequina

Жанр: Classical
Страна-производитель диска: Hungary
Год издания диска: 2007
Издатель (лейбл): Cypress Music
Номер по каталогу: bgso 2007/2
Аудиокодек: FLAC
Тип рипа: image+.cue
Битрейт аудио: lossless
Продолжительность: 02:10:02
Источник: собственный рип
Наличие сканов в содержимом раздачи: да
Треклист:
CD 1
1. Aram Khatchaturian - Sabre Dance
Soloist & Conductor: Josef Csocsi Lendvai
2. Johannes Brahms - Hungarian dance № 5
Soloist & Conductor: Florian Lacatos
3. Jeno Hubay - Hullamzo Balaton
Soloist & Conductor: Josef Csocsi Lendvai
4. Zoltan Horwath - Gypsy Fire
Soloist & Conductor: Josef Csocsi Lendvai Jr.
5. Vittorio Monti - Czardas
Soloist & Conductor: Bela Berki
6. Pablo De Sarasate - Zigeunerweisen
Soloist & Conductor: Josef Csocsi Lendvai
7.Traditional - Cymbalom Solo
Soloist: Oskar Okros
8. Traditional - Russian Melodies
Soloist & Conductor: Josef Csocsi Lendvai
9. George Bizet - Carmen
Soloist & Conductor: Sandor Buffo Rigo
CD 2
1. Johann Strauss IIThe Gypsy Baron
Soloist & Conductor: Sandor Buffo Rigo
2. Johann Strauss - Hail to Hungary !
Soloist & Conductor: Tibor Lucacs
3. Johannes Brahms - Hungarian Dance № 1
Soloist & Conductor: Josef Csocsi Lendvai
4. Johann Strauss II - The Tales from the Vienna Wood
Soloist & Conductor: Sandor Buffo Rigo
5. Johann Strauss II - Thunder and Lightning
Soloist & Conductor: Sandor Buffo Rigo
6. Johann Strauss -The Blue Danube
Soloist & Conductor Andras Suki
7. Johann Strauss - Radetzky March
Soloist: Sandor Buffo Rigo & Josef Csocsi Lendvai
Conductor: Sandor Buffo Rigo
8.Grogorias Dinicu - The Lark
Soloist: Sandor Buffo Rigo & Josef Csocsi Lendvai & Andras Suki
Conductor: Sandor Buffo Rigo
9. Traditional - Yiddishe Mamma
Soloist & Conductor: Sandor Buffo Rigo
10.Traditional Hevenu Shalom
Soloist & Conductor: Sandor Buffo Rigo
11. Traditional -Osse Shalom
Soloist & Conductor: Sandor Buffo Rigo
12. Traditional -Where should I Go
Soloist & Conductor: Sandor Buffo Rigo
13. Traditional - Jerusalem of Gold
Soloist & Conductor: Sandor Buffo Rigo
14. Carina De Marquin - Spanish Dance
Soloist: Sandor Buffo Rigo & Josef Csocsi Lendvai
Conductor: Sandor Buffo Rigo
15. Traditional - Czardas of the End
Soloist: Sandor Buffo Rigo & Josef Csocsi Lendvai
Conductor: Sandor Buffo Rigo
Исполнители:
Leader of the Orchestra : Jozsef LENDVAI CSOCSI
=Soloists=
First Violins
Bela BERKI
Laszlo BERKI Jr.
Florian LAKATOS
Ferenc LENDVAI Jr.
Tibor LUKACS
Jonas MATYAS
Ferenc SARKOZI
Andras SUKI
Alto Violins
Zoltan HORVATH
Gyula OLAH
Second Violins
Nándor FARKAS
Tibor KOLOMPAR
Cymbalom
Oszkar OKROS,
Jozsef BERKES
Jozsef MAKO
Clarinets
Sandor KECSKES
Andras PUPORKA
Double Basses
Gyula MAKA
Károly HORVATH
Cello
Karoly SZEGFU
Barnabas VAJDA
Management
Onoraries Presidents :
Gyorgy CZIFFRA-(1921-1994)
Lord Yehudi MENUHIN-(1916-1999)
Honorary Conductor : Laszlo BERKI- Cross(1941-1997)
President : Sandor RIGO "BUFFO"
Manager, Booking agent : Xavier DUBUC & Jacotte DUBUC
Marketing : Arthur DUBUC

Лог создания рипа

CD 1
Exact Audio Copy V1.0 beta 4 from 7. December 2014
Отчёт EAC об извлечении, выполненном 6. января 2015, 21:44
Budapest Gypsy Symphony Orchestra / From Budapest to Vienna CD 1
Дисковод: Optiarc DVD RW AD-5200S Adapter: 1 ID: 1
Режим чтения : Достоверность
Использование точного потока : Да
Отключение кэша аудио : Да
Использование указателей C2 : Нет
Коррекция смещения при чтении : 48
Способность читать области Lead-in и Lead-out : Нет
Заполнение пропущенных сэмплов тишиной : Да
Удаление блоков с тишиной в начале и конце : Нет
При вычислениях CRC использовались нулевые сэмплы : Да
Интерфейс : Установленный внешний ASPI-интерфейс
Выходной формат : Пользовательский кодировщик
Выбранный битрейт : 768 kBit/s
Качество : Высокий
Добавление ID3-тега : Нет
Утилита сжатия : C:\Program Files\Exact Audio Copy\Flac\flac.exe
Дополнительные параметры : : -V -8 -T "Date=%year%" -T "Genre=%genre%" %source%
TOC извлечённого CD
Трек | Старт | Длительность | Начальный сектор | Конечный сектор
---------------------------------------------------------------------
1 | 0:00.00 | 2:13.32 | 0 | 10006
2 | 2:13.32 | 2:58.20 | 10007 | 23376
3 | 5:11.52 | 7:18.58 | 23377 | 56284
4 | 12:30.35 | 6:37.04 | 56285 | 86063
5 | 19:07.39 | 5:57.74 | 86064 | 112912
6 | 25:05.38 | 9:40.15 | 112913 | 156427
7 | 34:45.53 | 8:09.33 | 156428 | 193135
8 | 42:55.11 | 8:37.13 | 193136 | 231923
9 | 51:32.24 | 7:16.05 | 231924 | 264628
Характеристики диапазона извлечения и сообщения об ошибках
Выбранный диапазон
Имя файла F:\Budapest Gypsy Symphony Orchestra - From Budapest to Vienna CD 1.wav
Копирование прервано
Конец отчёта
==== Контрольная сумма отчёта F8D769C543DD0988D59D6B5618E141E1ACB440415EF05708F7C4FF6309604E80 ====
------------------------------------------------------------
Exact Audio Copy V1.0 beta 4 from 7. December 2014
Отчёт EAC об извлечении, выполненном 6. января 2015, 22:10
Budapest Gypsy Symphony Orchestra / From Budapest to Vienna CD 1
Дисковод: Optiarc DVD RW AD-5200S Adapter: 1 ID: 1
Режим чтения : Достоверность
Использование точного потока : Да
Отключение кэша аудио : Да
Использование указателей C2 : Нет
Коррекция смещения при чтении : 48
Способность читать области Lead-in и Lead-out : Нет
Заполнение пропущенных сэмплов тишиной : Да
Удаление блоков с тишиной в начале и конце : Нет
При вычислениях CRC использовались нулевые сэмплы : Да
Интерфейс : Установленный внешний ASPI-интерфейс
Выходной формат : Пользовательский кодировщик
Выбранный битрейт : 768 kBit/s
Качество : Высокий
Добавление ID3-тега : Нет
Утилита сжатия : C:\Program Files\Exact Audio Copy\Flac\flac.exe
Дополнительные параметры : : -V -8 -T "Date=%year%" -T "Genre=%genre%" %source%
TOC извлечённого CD
Трек | Старт | Длительность | Начальный сектор | Конечный сектор
---------------------------------------------------------------------
1 | 0:00.00 | 2:13.32 | 0 | 10006
2 | 2:13.32 | 2:58.20 | 10007 | 23376
3 | 5:11.52 | 7:18.58 | 23377 | 56284
4 | 12:30.35 | 6:37.04 | 56285 | 86063
5 | 19:07.39 | 5:57.74 | 86064 | 112912
6 | 25:05.38 | 9:40.15 | 112913 | 156427
7 | 34:45.53 | 8:09.33 | 156428 | 193135
8 | 42:55.11 | 8:37.13 | 193136 | 231923
9 | 51:32.24 | 7:16.05 | 231924 | 264628
Характеристики диапазона извлечения и сообщения об ошибках
Выбранный диапазон
Имя файла F:\Budapest Gypsy Symphony Orchestra - From Budapest to Vienna CD 1.wav
Пиковый уровень 98.8 %
Скорость извлечения 3.9 X
Качество диапазона 100.0 %
CRC теста 2BA04DC5
CRC копии 2BA04DC5
Копирование... OK
Ошибок не произошло
Конец отчёта
==== Контрольная сумма отчёта 2A8B025570ABDE1DD1726CC419FE196F313336D3DDE730C751D233ADF43ACAC6 ====
CD 2
xact Audio Copy V1.0 beta 4 from 7. December 2014
Отчёт EAC об извлечении, выполненном 6. января 2015, 22:59
Budapest Gypsy Symphony Orchestra / Hundred Gypsy Violins Vol 2/2
Дисковод: Optiarc DVD RW AD-5200S Adapter: 1 ID: 1
Режим чтения : Достоверность
Использование точного потока : Да
Отключение кэша аудио : Да
Использование указателей C2 : Нет
Коррекция смещения при чтении : 48
Способность читать области Lead-in и Lead-out : Нет
Заполнение пропущенных сэмплов тишиной : Да
Удаление блоков с тишиной в начале и конце : Нет
При вычислениях CRC использовались нулевые сэмплы : Да
Интерфейс : Установленный внешний ASPI-интерфейс
Выходной формат : Пользовательский кодировщик
Выбранный битрейт : 768 kBit/s
Качество : Высокий
Добавление ID3-тега : Нет
Утилита сжатия : C:\Program Files\Exact Audio Copy\Flac\flac.exe
Дополнительные параметры : : -V -8 -T "Date=%year%" -T "Genre=%genre%" %source%
TOC извлечённого CD
Трек | Старт | Длительность | Начальный сектор | Конечный сектор
---------------------------------------------------------------------
1 | 0:00.00 | 7:25.13 | 0 | 33387
2 | 7:25.13 | 2:42.33 | 33388 | 45570
3 | 10:07.46 | 3:31.40 | 45571 | 61435
4 | 13:39.11 | 11:04.30 | 61436 | 111265
5 | 24:43.41 | 3:06.57 | 111266 | 125272
6 | 27:50.23 | 9:01.39 | 125273 | 165886
7 | 36:51.62 | 2:08.64 | 165887 | 175550
8 | 39:00.51 | 14:06.56 | 175551 | 239056
9 | 53:07.32 | 3:12.72 | 239057 | 253528
10 | 56:20.29 | 1:44.16 | 253529 | 261344
11 | 58:04.45 | 2:46.74 | 261345 | 273868
12 | 60:51.44 | 2:28.48 | 273869 | 285016
13 | 63:20.17 | 2:59.59 | 285017 | 298500
14 | 66:20.01 | 2:04.61 | 298501 | 307861
15 | 68:24.62 | 2:49.71 | 307862 | 320607
Характеристики диапазона извлечения и сообщения об ошибках
Выбранный диапазон
Имя файла F:\Budapest Gypsy Symphony Orchestra - Hundred Gypsy Violins Vol 2,2.wav
Пиковый уровень 98.8 %
Скорость извлечения 4.1 X
Качество диапазона 100.0 %
CRC теста 38E692E9
CRC копии 38E692E9
Копирование... OK
Ошибок не произошло
Конец отчёта
==== Контрольная сумма отчёта AC4BB469FF44B89A759BBA8E12083477856522ADEA0B4F3B07AA79D17DB8055F ====



Показать сообщения:    

Текущее время: 10-Дек 17:43

Часовой пояс: UTC + 3


Вы не можете начинать темы
Вы не можете отвечать на сообщения
Вы не можете редактировать свои сообщения
Вы не можете удалять свои сообщения
Вы не можете голосовать в опросах
Вы не можете прикреплять файлы к сообщениям
Вы не можете скачивать файлы