(Classical) Ludwig van Beethoven - Symphony No. 3 'Eroica'; 12 Contretanze - Helsingborg Symphony Orchestra, Andrew Manze - 2008, FLAC (image+.cue) lossless


 

[Цитировать]

Ludwig van Beethoven - Symphony No. 3 'Eroica'; 12 Contretänze - Helsingborg Symphony Orchestra, Andrew Manze
Жанр: Classical
Страна-производитель диска: USA
Год издания диска: 2008
Издатель (лейбл): Harmonia Mundi USA
Номер по каталогу: HMU 807470
Дата записи: 2008
Аудиокодек: FLAC
Тип рипа: image+.cue
Битрейт аудио: lossless
Продолжительность: 70:07
Источник: собственный рип
Наличие сканов в содержимом раздачи: да
Треклист:
Ludwig van Beethoven (1770-1827)
[1]-[4] Symphony No.3 in E flat major 'Eroica', Op.55
[5]-[16] 12 Contretänze, WoO 14
[17] Die Geschöpfe des Prometheus, Op.43 - Finale from the ballet music
Исполнители:
Helsingborg Symphony Orchestra
Andrew Manze

Лог создания рипа

Exact Audio Copy V1.0 beta 3 from 29. August 2011
EAC extraction logfile from 22. December 2014, 20:56
Helsingborg Symphony Orchestra, Andrew Manze / Beethoven - Symphony No.3
Used drive : HL-DT-STDVDRAM GU70N Adapter: 0 ID: 0
Read mode : Secure
Utilize accurate stream : Yes
Defeat audio cache : Yes
Make use of C2 pointers : No
Read offset correction : 48
Overread into Lead-In and Lead-Out : No
Fill up missing offset samples with silence : Yes
Delete leading and trailing silent blocks : No
Null samples used in CRC calculations : Yes
Used interface : Native Win32 interface for Win NT & 2000
Used output format : User Defined Encoder
Selected bitrate : 128 kBit/s
Quality : High
Add ID3 tag : No
Command line compressor : C:\Program Files (x86)\Exact Audio Copy\Flac\flac.exe
Additional command line options : -V -8 -T "Date=%year%" -T "Genre=%genre%" %source%
TOC of the extracted CD
Track | Start | Length | Start sector | End sector
---------------------------------------------------------
1 | 0:00.00 | 16:53.01 | 0 | 75975
2 | 16:53.01 | 16:11.33 | 75976 | 148833
3 | 33:04.34 | 5:29.09 | 148834 | 173517
4 | 38:33.43 | 11:56.27 | 173518 | 227244
5 | 50:29.70 | 0:36.35 | 227245 | 229979
6 | 51:06.30 | 0:37.58 | 229980 | 232812
7 | 51:44.13 | 1:12.37 | 232813 | 238249
8 | 52:56.50 | 0:55.49 | 238250 | 242423
9 | 53:52.24 | 1:23.11 | 242424 | 248659
10 | 55:15.35 | 1:43.22 | 248660 | 256406
11 | 56:58.57 | 0:44.49 | 256407 | 259755
12 | 57:43.31 | 0:55.40 | 259756 | 263920
13 | 58:38.71 | 0:32.70 | 263921 | 266390
14 | 59:11.66 | 1:21.25 | 266391 | 272490
15 | 60:33.16 | 0:41.52 | 272491 | 275617
16 | 61:14.68 | 2:19.31 | 275618 | 286073
17 | 63:34.24 | 6:31.09 | 286074 | 315407
Range status and errors
Selected range
Filename C:\temp\Beethoven - Symphony No.3 - Helsingborg SO, Manze\Beethoven - Symphony No.3.wav
Peak level 96.2 %
Extraction speed 2.3 X
Range quality 99.9 %
Test CRC D1853A28
Copy CRC D1853A28
Copy OK
No errors occurred
AccurateRip summary
Track 1 accurately ripped (confidence 9) [CEC6C1F4] (AR v2)
Track 2 accurately ripped (confidence 9) [D46585A3] (AR v2)
Track 3 accurately ripped (confidence 9) [510D118D] (AR v2)
Track 4 accurately ripped (confidence 9) [638DF5A7] (AR v2)
Track 5 accurately ripped (confidence 9) [60BFA95D] (AR v2)
Track 6 accurately ripped (confidence 9) [7EBABB57] (AR v2)
Track 7 accurately ripped (confidence 9) [611A3D25] (AR v2)
Track 8 accurately ripped (confidence 9) [543D7EB7] (AR v2)
Track 9 accurately ripped (confidence 9) [D6C3B7B4] (AR v2)
Track 10 accurately ripped (confidence 9) [7851E352] (AR v2)
Track 11 accurately ripped (confidence 9) [09068340] (AR v2)
Track 12 accurately ripped (confidence 9) [F2E9EBC8] (AR v2)
Track 13 accurately ripped (confidence 9) [D3F6C445] (AR v2)
Track 14 accurately ripped (confidence 9) [6C39B1A6] (AR v2)
Track 15 accurately ripped (confidence 9) [F554095A] (AR v2)
Track 16 accurately ripped (confidence 9) [BE84C9F4] (AR v2)
Track 17 accurately ripped (confidence 9) [B6BB8381] (AR v2)
All tracks accurately ripped
End of status report
==== Log checksum 916CCCF9E2492B9E6B388E26A74FE7F8C268B01780D8BC0E568406A2BA09F80A ====



Показать сообщения:    

Текущее время: 10-Дек 23:26

Часовой пояс: UTC + 3


Вы не можете начинать темы
Вы не можете отвечать на сообщения
Вы не можете редактировать свои сообщения
Вы не можете удалять свои сообщения
Вы не можете голосовать в опросах
Вы не можете прикреплять файлы к сообщениям
Вы не можете скачивать файлы