Эмир Кустурица. Хулиган с Балкан / Emir Kusturica: Portray of the Balkan's Bad Boy (Георгий Тошев / Georgi Toshev, Явор Весселинов / Yavor Vesselinov) [2012, документальный, биографический, DVB] DVO (Первый канал)


Статистика раздачи [Обновить пиров]
Размер:  1.42 GB   |    Зарегистрирован:  8 месяцев 16 дней   |    Скачан:  0 раз

Полного источника не было: Никогда

Личеров:  9  [  0 KB/s  ]   Подробная статистика пиров
 
   
 
 
 

[Цитировать]

Кустурица. Хулиган с Балкан
Emir Kusturica: Portray of the Balkan's Bad Boy- Дата/Год выпуска: 2012
Страна: Болгария
Жанр: документальный, биографический
Продолжительность: 00:59:43
Перевод: Профессиональный (двухголосый закадровый)
Доп. инфо о переводе: По заказу ЗАО "Первый канал. Всемирная сеть"
Русские субтитры: нетРежиссер: Георгий Тошев / Georgi Toshev, Явор Весселинов / Yavor Vesselinov
Телеканал: Время: далекое и близкое
Описание: Эмир Кустурица, создатель таких лент как "Папа в командировке", "Черная кошка, белый кот", "Андерграунд", "Жизнь как чудо" выступил в роли героя документального фильма.
В фильме Кустурица рассказывает о своей семье, о своих взглядах и начинаниях. Мы видим, как он организует фестиваль, поддерживающий развитие молодых кинематографистов, сводит их с крупными творцами кино. И еще - как он выступает с концертами по миру со своим "No Smoking Orchestra". (анонс канала "Время")
Доп. информация: DVB-S
Участник Sofia International Film Festival 2012; FIPA - Festival International de Programmes Audiovisuels (Paris) 2012.

качество: DVB
формат: MKV
Видео: MPEG Video 2, 720x576@768x576 (4:3), 25 fps, ~3144 kbps avg, 0.303 bit/pixel
Аудио: MPEG Audio 2, 2 ch, 48 kHz, ~192.00 kbps avg

MediaInfo

Общее
Уникальный идентификатор : 183646385917145563014713359079033166163 (0x8A2901E3C33E2E91A58B2E02C16A5953)
Полное имя : E:\My Torrents 2\[apreder]Kusturica_Balkan's_Bad_Boy(2012)DVB.mkv
Формат : Matroska
Версия формата : Version 2
Размер файла : 1,42 Гбайт
Продолжительность : 59 м.
Режим общего битрейта : Переменный
Общий поток : 3404 Кбит/сек
Дата кодирования : UTC 2015-01-07 09:25:14
Программа кодирования : mkvmerge v7.5.0 ('Glass Culture') 64bit built on Jan 4 2015 16:48:44
Библиотека кодирования : libebml v1.3.1 + libmatroska v1.4.2
Видео
Идентификатор : 1
Формат : MPEG Video
Версия формата : Version 2
Профиль формата : Main@Main
Параметр BVOP формата : Да
Параметр матрицы формата : Выборочная
Параметр GOP формата : M=3, N=12
Format_Settings_PictureStructure : Frame
Идентификатор кодека : V_MPEG2
Идентификатор кодека/Информация : MPEG 1 or 2 Video
Продолжительность : 59 м.
Вид битрейта : Переменный
Битрейт : 3144 Кбит/сек
Ширина : 720 пикселей
Высота : 576 пикселей
Соотношение сторон : 4:3
Режим частоты кадров : Постоянный
Частота кадров : 25,000 кадров/сек
Стандарт вещания : PAL
Цветовое пространство : YUV
Субдискретизация насыщенности : 4:2:0
Битовая глубина : 8 бит
Тип развёртки : Чересстрочная
Порядок развёртки : Верхнее поле первое
Метод сжатия : С потерями
Бит/(Пиксели*Кадры) : 0.303
Временной код первого кадра : 00:00:00:00
Оригинал временного кода : Group of pictures header
Размер потока : 1,31 Гбайт (92%)
Default : Да
Forced : Нет
Gop_OpenClosed_FirstFrame : Closed
Аудио
Идентификатор : 2
Формат : MPEG Audio
Версия формата : Version 1
Профиль формата : Layer 2
Идентификатор кодека : A_MPEG/L2
Идентификатор кодека/Подсказка : MP2
Продолжительность : 59 м.
Вид битрейта : Постоянный
Битрейт : 192 Кбит/сек
Каналы : 2 канала
Частота : 48,0 КГц
Метод сжатия : С потерями
Размер потока : 82,0 Мбайт (6%)
Язык : Russian
Default : Да
Forced : Нет

Скриншоты

Резервные скриншоты

-[2'032]
[teatrix.ru].t20036.torrent 
Торрент: Зарегистрирован [ 2016-03-19 00:45 ] · CCA87FA041982827D6FCA5C4A72E25D5DF6B41AF

Скачать .torrent

Скачать

15 KB

Статус: проверено
Скачан: 0 раз
Размер: 1.42 GB
terms.php



Быстрый ответ

Имя:

      
Для отправки сообщений необходимо включить JavaScript
Показать сообщения:    

Текущее время: 04-Дек 15:17

Часовой пояс: UTC + 3


Вы можете начинать темы
Вы можете отвечать на сообщения
Вы не можете редактировать свои сообщения
Вы не можете удалять свои сообщения
Вы не можете голосовать в опросах
Вы не можете прикреплять файлы к сообщениям
Вы можете скачивать файлы