Билли Джоэл. Дело доверия. Мост в Россию / Окно в Россию / Billy Joel: A Matter of Trust. The Bridge to Russia. A Documentary Film (Джим Браун / Jim Brown) [2013, документальный, музыка, DVB]


Статистика раздачи [Обновить пиров]
Размер:  1.7 GB   |    Зарегистрирован:  8 месяцев 22 дня   |    Скачан:  0 раз

Полного источника не было: Никогда

 
   
 
 
 

[Цитировать]

Билли Джоэл. Дело доверия. Мост в Россию
Billy Joel: A Matter of Trust. The Bridge to Russia. A Documentary Film- Дата/Год выпуска: 2013
Страна: США
Жанр: документальный, музыка
Продолжительность: 01:14:06
Перевод: Субтитры
Доп. инфо о переводе: Amedia
Русские субтитры: есть
Формат субтитров: hardsub (неотключаемые)
Оригинальная аудиодорожка: английский
Режиссер: Джим Браун / Jim Brown
Телеканал: Amedia Premium SDОписание: В июле - августе 1987 года, после 100 шоу по всему миру в рамках тура "The Bridge", Билли Джоэл принял от Кремля приглашение приехать в СССР и провести шесть полноценных рок-шоу в Москве и Ленинграде. Во время пребывания в Советском Союзе Билли и его семья, а также музыканты, персонал и иностранные журналисты целыми днями общались с жителями двух столиц, среди которых у них появилось немало друзей. Фильм "Билли Джоэл. Окно в Россию" представляет собой расширенную версию того, что четверть века назад увидели и услышали поклонники Джоэла. К фильму о концерте, выпущенному на VHS в 1987 году, были добавлены семь ранее не издававшихся песен и бонусное исполнение "Pressure". Также был произведен полный ремастеринг музыки с оригинальных 35-мм негативов для достижения максимального качества.Звучат музыкальные фрагменты:
01. Back in the USSR
02. The Times They Are A-Changin'
03. Piano Concerto No 1 (Tchaikovsky)
04. Walk Over God's Heaven
05. My Funny Valentine
06. I Do
07. You're A Grand Old Flag
08. Rhapsody in Blue
Доп. информация: DVB-S

качество: DVB
формат: MKV
Видео: MPEG Video 2, 720x576@1024x576 (16:9), 25 fps, ~3019 kbps avg, 0.291 bit/pixel
Аудио: MPEG Audio 2, 2 ch, 48 kHz, ~192.00 kbps avg

MediaInfo

Общее
Уникальный идентификатор : 237173147071115623297812421755230411421 (0xB26DE2F7E1D6BE2CA8532CF695B2DA9D)
Полное имя : E:\My Torrents 2\[apreder]Billy_Joel_A_Matter_of_Trust_The_Bridge_to_Russia(2013)DVB.mkv
Формат : Matroska
Версия формата : Version 2
Размер файла : 1,70 Гбайт
Продолжительность : 1 ч. 14 м.
Режим общего битрейта : Переменный
Общий поток : 3276 Кбит/сек
Дата кодирования : UTC 2015-01-07 10:52:27
Программа кодирования : mkvmerge v7.5.0 ('Glass Culture') 64bit built on Jan 4 2015 16:48:44
Библиотека кодирования : libebml v1.3.1 + libmatroska v1.4.2
Видео
Идентификатор : 1
Формат : MPEG Video
Версия формата : Version 2
Профиль формата : Main@Main
Параметр BVOP формата : Да
Параметр матрицы формата : Выборочная
Параметр GOP формата : M=3, N=24
Format_Settings_PictureStructure : Frame
Идентификатор кодека : V_MPEG2
Идентификатор кодека/Информация : MPEG 1 or 2 Video
Продолжительность : 1 ч. 14 м.
Вид битрейта : Переменный
Битрейт : 3019 Кбит/сек
Ширина : 720 пикселей
Высота : 576 пикселей
Соотношение сторон : 16:9
Режим частоты кадров : Постоянный
Частота кадров : 25,000 кадров/сек
Стандарт вещания : PAL
Цветовое пространство : YUV
Субдискретизация насыщенности : 4:2:0
Битовая глубина : 8 бит
Тип развёртки : Чересстрочная
Порядок развёртки : Верхнее поле первое
Метод сжатия : С потерями
Бит/(Пиксели*Кадры) : 0.291
Временной код первого кадра : 00:00:00:00
Оригинал временного кода : Group of pictures header
Размер потока : 1,56 Гбайт (92%)
Default : Да
Forced : Нет
Gop_OpenClosed_FirstFrame : Closed
Аудио
Идентификатор : 2
Формат : MPEG Audio
Версия формата : Version 1
Профиль формата : Layer 2
Идентификатор кодека : A_MPEG/L2
Идентификатор кодека/Подсказка : MP2
Продолжительность : 1 ч. 14 м.
Вид битрейта : Постоянный
Битрейт : 192 Кбит/сек
Каналы : 2 канала
Частота : 48,0 КГц
Метод сжатия : С потерями
Размер потока : 102 Мбайт (6%)
Язык : English
Default : Да
Forced : Нет

Скриншоты


Резервные скриншоты


-[2'033]
[teatrix.ru].t20037.torrent 
Торрент: Зарегистрирован [ 2016-03-19 00:47 ] · 4F8A2A8BFCA7F2D68758B38EAF7CBD40E68A1D29

Скачать .torrent

Скачать

17 KB

Статус: проверено
Скачан: 0 раз
Размер: 1.7 GB
terms.php



Быстрый ответ

Имя:

      
Для отправки сообщений необходимо включить JavaScript
Показать сообщения:    

Текущее время: 10-Дек 17:40

Часовой пояс: UTC + 3


Вы можете начинать темы
Вы можете отвечать на сообщения
Вы не можете редактировать свои сообщения
Вы не можете удалять свои сообщения
Вы не можете голосовать в опросах
Вы не можете прикреплять файлы к сообщениям
Вы можете скачивать файлы