(Opera) Bretan - Golem And Arald (Daroczy, Agache, Sandru, Zancu - Philharmonic Orchestra Moldava Iasi, Mandeal) - 1995, APE (image+.cue) lossless


 

[Цитировать]

Nicolae Bretan - Golem & Arald
Жанр: Opera
Страна-производитель диска: US / UK
Год издания диска: 1995
Издатель (лейбл): Nimbus Records
Номер по каталогу: NI 5424
Дата записи: 1987
Аудиокодек: APE
Тип рипа: image+.cue
Битрейт аудио: lossless
Продолжительность: 73'18
Источник: собственный рип
Наличие сканов в содержимом раздачи: да
Треклист/Исполнители:
Golem
Треклист:
1. Introduction
2. Leave me alone, Golem, leave me!
3. I looked deep into her eyes...
4. I cannot change you into a man
5. I formed you of clay...
6. Under the earth, you do not feel the cold.
7. Did you call me?
8. No! I won't tear it out!
9. Why don't you give me that talisman?
10. Peace to you, dream of the human mind.
Nicolae Bretan - Golem Lásadása
Opera in One Act
World Premiere Recording
Tamás Daróczy (Tenor)
Alexandru Agache (Baritone)
Sanda Sandru (Soprano),
Dan Zancu (Bass)
Philharmonic Orchestra Moldava, Iasi
Cristian Mandeal (Conductor)
Language: Romanian
Arald
Треклист:
11. Arald on his charger sweeps...
12. To you, O timeless Seer, across the world I ride...
13. You were still but a child
14. My people ceased their march...
15. Out of the heart of earth let man the dead awake..
16. Come, Arald, your sweet brow against my bosom lean...
17. Interlude
18. Lost of all eternity within the tomb's constraint.
Nicolae Bretan - Arald
Opera in One Act
World Premiere Recording
Tamás Daróczy (Tenor)
Alexandru Agache (Baritone)
Sanda Sandru (Soprano),
Dan Zancu (Bass)
Ionel Voineag (Tenor),
Philharmonic Orchestra Moldava, Iasi
Cristian Mandeal (Conductor)
Language: Romanian

Лог создания рипа

Exact Audio Copy V1.0 beta 3 from 29. August 2011
EAC extraction logfile from 6. January 2015, 12:17
Bretan / Golem & Arald, Mandeal
Used drive : TSSTcorpCDDVDW SE-208AB Adapter: 1 ID: 0
Read mode : Secure
Utilize accurate stream : Yes
Defeat audio cache : Yes
Make use of C2 pointers : No
Read offset correction : 6
Overread into Lead-In and Lead-Out : No
Fill up missing offset samples with silence : Yes
Delete leading and trailing silent blocks : No
Null samples used in CRC calculations : Yes
Used interface : Native Win32 interface for Win NT & 2000
Used output format : Monkey's Audio Lossless Encoder
Selected bitrate : High Lossless Compression
Quality : High
Add ID3 tag : Yes
Command line compressor : C:\Program Files (x86)\Exact Audio Copy\MAC\MAC.exe
TOC of the extracted CD
Track | Start | Length | Start sector | End sector
---------------------------------------------------------
1 | 0:00.00 | 4:06.47 | 0 | 18496
2 | 4:06.47 | 4:15.28 | 18497 | 37649
3 | 8:22.00 | 6:26.12 | 37650 | 66611
4 | 14:48.12 | 5:12.70 | 66612 | 90081
5 | 20:01.07 | 3:54.60 | 90082 | 107691
6 | 23:55.67 | 3:51.40 | 107692 | 125056
7 | 27:47.32 | 4:30.58 | 125057 | 145364
8 | 32:18.15 | 3:22.10 | 145365 | 160524
9 | 35:40.25 | 4:18.50 | 160525 | 179924
10 | 39:59.00 | 5:36.00 | 179925 | 205124
11 | 45:35.00 | 1:47.00 | 205125 | 213149
12 | 47:22.00 | 3:15.00 | 213150 | 227774
13 | 50:37.00 | 6:45.27 | 227775 | 258176
14 | 57:22.27 | 4:26.48 | 258177 | 278174
15 | 61:49.00 | 2:08.00 | 278175 | 287774
16 | 63:57.00 | 4:41.00 | 287775 | 308849
17 | 68:38.00 | 2:20.00 | 308850 | 319349
18 | 70:58.00 | 2:30.00 | 319350 | 330599
Range status and errors
Selected range
Filename D:\EAC\Bretan - Golem & Arald, Mandeal.wav
Peak level 90.7 %
Extraction speed 5.1 X
Range quality 99.9 %
Test CRC 17267F4C
Copy CRC 17267F4C
Copy OK
No errors occurred
AccurateRip summary
Track 1 accurately ripped (confidence 1) [E6ED6D40] (AR v2)
Track 2 accurately ripped (confidence 1) [D923DC56] (AR v2)
Track 3 accurately ripped (confidence 1) [B3545FE8] (AR v2)
Track 4 accurately ripped (confidence 1) [E92046C2] (AR v2)
Track 5 accurately ripped (confidence 1) [B1B3F269] (AR v2)
Track 6 accurately ripped (confidence 1) [84A5CA58] (AR v2)
Track 7 accurately ripped (confidence 1) [6DFBD8DF] (AR v2)
Track 8 accurately ripped (confidence 1) [C9482207] (AR v2)
Track 9 accurately ripped (confidence 1) [64E37C40] (AR v2)
Track 10 accurately ripped (confidence 1) [078627B8] (AR v2)
Track 11 accurately ripped (confidence 1) [B9AA09B6] (AR v2)
Track 12 accurately ripped (confidence 1) [BFDB05E1] (AR v2)
Track 13 accurately ripped (confidence 1) [B75271DE] (AR v2)
Track 14 accurately ripped (confidence 1) [6710DB9D] (AR v2)
Track 15 accurately ripped (confidence 1) [C6DCF56D] (AR v2)
Track 16 accurately ripped (confidence 1) [F383DB44] (AR v2)
Track 17 accurately ripped (confidence 1) [2110B3E6] (AR v2)
Track 18 accurately ripped (confidence 1) [4E3BC0A9] (AR v2)
All tracks accurately ripped
End of status report
---- CUETools DB Plugin V2.1.3
[CTDB TOCID: h3L4fM0wE8QMzjd2Ydv_.bGzAq0-] disk not present in database, Submit result: h3L4fM0wE8QMzjd2Ydv_.bGzAq0- has been uploaded
==== Log checksum 8FEB8CB0CF024FCFF68321F03C8AC11F0F1B8F88C9635DA0B3C5EB003A1117A5 ====

Содержание индексной карты (.CUE)

REM GENRE Opera
REM DATE 1987
REM DISCID EC113812
REM COMMENT "ExactAudioCopy v1.0b3"
CATALOG 0710357542428
PERFORMER "Bretan"
TITLE "Golem & Arald, Mandeal"
FILE "Bretan - Golem & Arald, Mandeal.ape" WAVE
TRACK 01 AUDIO
TITLE "Golem: 1. Introduction [Orchestra]"
PERFORMER "Bretan"
ISRC GBAJU8700358
INDEX 01 00:00:00
TRACK 02 AUDIO
TITLE "2. Leave me alone, Golemm leave me! [Golem]"
PERFORMER "Bretan"
ISRC GBAJU8700358
INDEX 01 04:06:47
TRACK 03 AUDIO
TITLE "3. I looked deap into her eyes [Golem]"
PERFORMER "Bretan"
ISRC GBAJU8700360
INDEX 01 08:22:00
TRACK 04 AUDIO
TITLE "4. I cannot change you into a man [Low]"
PERFORMER "Bretan"
ISRC GBAJU8700360
INDEX 01 14:48:12
TRACK 05 AUDIO
TITLE "5. I formed you of clay [Low]"
PERFORMER "Bretan"
ISRC GBAJU8700362
INDEX 01 20:01:07
TRACK 06 AUDIO
TITLE "6. Under the earth, you do not feel the cold [Golem]"
PERFORMER "Bretan"
ISRC GBAJU8700363
INDEX 01 23:55:67
TRACK 07 AUDIO
TITLE "7. Did you call me? [Baruch]"
PERFORMER "Bretan"
ISRC GBAJU8700364
INDEX 01 27:47:32
TRACK 08 AUDIO
TITLE "8. No! I won't tear it out! [Golem]"
PERFORMER "Bretan"
ISRC GBAJU8700365
INDEX 01 32:18:15
TRACK 09 AUDIO
TITLE "9. Why don't you give me that talisman? [Golem]"
PERFORMER "Bretan"
ISRC GBAJU8700366
INDEX 01 35:40:25
TRACK 10 AUDIO
TITLE "10. Peace to you, dream of the human mind. [Chorus]"
PERFORMER "Bretan"
ISRC GBAJU8700367
INDEX 01 39:59:00
TRACK 11 AUDIO
TITLE "Arald: 1. Prologue, Arald on his charger sweeps [The Poet]"
PERFORMER "Bretan"
ISRC GBAJU8700368
INDEX 00 45:21:00
INDEX 01 45:35:00
TRACK 12 AUDIO
TITLE "2. To you, O timeless Seer, across the world I ride [Arald]"
PERFORMER "Bretan"
ISRC GBAJU8700369
INDEX 01 47:22:00
TRACK 13 AUDIO
TITLE "3. You were still but a child [The Seer]"
PERFORMER "Bretan"
ISRC GBAJU8700370
INDEX 01 50:37:00
TRACK 14 AUDIO
TITLE "4. My people ceased their march [Arald]"
PERFORMER "Bretan"
ISRC GBAJU8700371
INDEX 01 57:22:27
TRACK 15 AUDIO
TITLE "5. Out of the heart of earth, let man the dead awake [The Seer]"
PERFORMER "Bretan"
ISRC GBAJU8700372
INDEX 01 61:49:00
TRACK 16 AUDIO
TITLE "6. Come, Arald, your sweet brow against my bosom lean [Maria]"
PERFORMER "Bretan"
ISRC GBAJU8700373
INDEX 01 63:57:00
TRACK 17 AUDIO
TITLE "7. Interlude[ Orchestra]"
PERFORMER "Bretan"
ISRC GBAJU8700374
INDEX 01 68:38:00
TRACK 18 AUDIO
TITLE "8. Lost of all eternity within the tomb's constraint. [The Seer]"
PERFORMER "Bretan"
ISRC GBAJU8700375
INDEX 01 70:58:00
Доп. информация:
Reviewing what is arguably Bretan’s masterpiece, the full-length opera Horia (Horia: http://teatrix.ru/viewtopic.php?t=4442966 ), I was deeply impressed by the power of the dramatic writing while at the same time he retained his very personal melodic language - truthful, tonal and expressive - just as in his songs (Requiem & Sacred Songs: http://teatrix.ru/viewtopic.php?t=4351476 ).
I still regard Horia as a landmark work in the history of opera for its humanity and struggle for freedom.
Unfortunately it is let down by a fair amount of less than attractive singing - though the commitment is never in question - and the recording - live from stage performance with intrusive noises and in monaural sound only.
The present disc, juxtaposing two one-act operas, is a great improvement.
It is in good stereo, albeit analogue, made under studio conditions and the singing is in a different class.
The operas in themselves are as fascinating as Horia, but from different points of view.
The theme of humanity is however omnipresent.
In Golem, Rabbi Löw has created Golem out of clay.
When the opera begins he is worried about Anna, his grand-daughter, who is dying.
It is only Golem who knows what is wrong with her.
Golem is in love with Anna, he has touched her and kissed her and it is sure death for a human to have any contact with a man of clay.
Golem tells Löw this and wants Anna as his bride and so demands from Löw, his creator, the power to procreate.
To save Anna, Löw has to kill Golem.
What is fascinating about the opera, which is based on a drama by Illés Kacér, is that Golem, who was created by Löw in defiance of God, is the most human of the characters.
It is his feelings, his sufferings that permeate the score and there is a warmth and a melodic beauty in the long solos he has to sing.
Alexandru Agache in the title role is superb, singing with great feeling and impeccable legato.
His is a glorious voice, powerful, beautiful and youthful.
Tamás Daróczy is an acceptable Rabbi Löw but Sandra Sandru has her shrill moments.
Dan Zancu, whose black bass was one of the assets of the Horia recording, has little to sing but does it well.
The final trio, after Golem has died, recalls the finale of Gounod’s Faust - whether intentionally or not.
Arald also deals with life and death, but here we are already in the underworld and the characters have already passed away.
The Poet tells of Arald who is searching for the Seer, who has the power to work miracles.
Arald comes and lays the body of his beloved Maria at the feet of the Seer, begging him to bring Maria back to life.
The Seer offers Arald a drink, which transforms him into a ghost and Maria is restored to life.
They sing an ecstatic love duet together but as day breaks they are swallowed by the earth.
The Seer, by death forgot, laments his own eternity.
This is a variant on the Orpheus myth.
As in Golem Nicolae Bretan wrote his own libretto, this time based on Mihai Eminescu’s poem "The Ghost".
There is little drama in the shape of dialogue; instead the short opera is a sequence of ’arias’ - all of great beauty - and the above mentioned duet.
The music has an otherworldly serenity which doesn’t exclude passion and dramatic intensity and most of the singing is on an exalted level.
Dan Zancu’s Poet is noble, Jonel Voineag as Arald is a splendid lirico spinto tenor, singing with glow and Alexandru Agache as the Seer is again superb as the Seer with a flow of noble melodious solo singing.
Several of the themes stuck at first hearing and I went round humming them for hours.
Sandra Sandru is more at ease as Maria than she was as Anna in Golem and the orchestra play well under the inspired baton of Cristian Mandeal.



Показать сообщения:    

Текущее время: 07-Дек 19:23

Часовой пояс: UTC + 3


Вы не можете начинать темы
Вы не можете отвечать на сообщения
Вы не можете редактировать свои сообщения
Вы не можете удалять свои сообщения
Вы не можете голосовать в опросах
Вы не можете прикреплять файлы к сообщениям
Вы не можете скачивать файлы