(Opera) Bretan - Luceafarul (Budoiu, Casian, Croitoru, Pojar - Cluj Transilvania Philharmonic Orchestra, Hary) - 1996, APE (image+.cue) lossless


 

[Цитировать]

Nicolae Bretan - Luceafarul Op. 1
Жанр: Opera
Страна-производитель диска: US / UK
Год издания диска: 1996
Издатель (лейбл): Nimbus Records
Номер по каталогу: NI 5463
Дата записи: 1994
Аудиокодек: APE
Тип рипа: image+.cue
Битрейт аудио: lossless
Продолжительность: 60'57
Источник: собственный рип
Наличие сканов в содержимом раздачи: да
Треклист:
1. Prologue
2. Prologue: Osana! Osana! (Chorus of Stars)
3. Prologue: Hypreion, ce din genuni (Michael the Archangel)
4. Prologue: Luceafar bland (Chorus of Stars)
5. Act I: (Orchestra)
6. Act I: Odat' vorbind cu el in somn (The King's Daughter)
7. Act I: Marea-i lina, luna-i plina (The Mariner)
8. Act I: Cobori in jos, Luceafar Bland (The King's Daughter)
9. Act I: Din sfera mea venii cu greu (The Evening Star)
10. Act I: O, esti frumos cum numa-n vis (The King's Daughter)
11. Act I: Strain la vorba si la port (The King's Daughter)
12. Act I: Lasa-ti lumea, lumea ta uitata (The King's Daughter and The Evening Star)
13. Act I: La mijloc de codru des (The Page)
14. Act I: Cum vanatoru-ntinde-n crang (The Page)
15. Act I: O, lasa-mi capul meu pe san (The Page)
16. Act I: Ma dor de crudul lui amor (The King's Daughter)
17. Act I: Patrunde trist cu raze reci (The Page)
18. Epilogue
19. Epilogue: Ce-ti pasa tie chip de lut (The Evening Star)
20. Epilogue: Traind in cercul vostru stramt (The Evening Star)
Исполнители:
Nicolae Bretan - Luceafarul Op. 1
Opera in One Act, Prologue and Epilogue
World Premiere Recording
Luceafárul - Ionel Voineag, tenor
Arhanghelul Mihail - Bálint Szabó, bass
Dama de Curte - Elena Casian, mezzo-soprano
Fata de lmpirat - Adriana Croitoru, soprano
Corabierul - Marius Budoiu, tenor
Pajul - Ioan Pojar, tenor .
Corul Stelelor
Philharmonic Orchestra Transilvania, Cluj
Béla Hary, conductor

Лог создания рипа

Exact Audio Copy V1.0 beta 3 from 29. August 2011
EAC extraction logfile from 5. January 2015, 12:48
Bretan / Luceafarul, Hary
Used drive : TSSTcorpCDDVDW SE-208AB Adapter: 1 ID: 0
Read mode : Secure
Utilize accurate stream : Yes
Defeat audio cache : Yes
Make use of C2 pointers : No
Read offset correction : 6
Overread into Lead-In and Lead-Out : No
Fill up missing offset samples with silence : Yes
Delete leading and trailing silent blocks : No
Null samples used in CRC calculations : Yes
Used interface : Native Win32 interface for Win NT & 2000
Used output format : Monkey's Audio Lossless Encoder
Selected bitrate : High Lossless Compression
Quality : High
Add ID3 tag : Yes
Command line compressor : C:\Program Files (x86)\Exact Audio Copy\MAC\MAC.exe
TOC of the extracted CD
Track | Start | Length | Start sector | End sector
---------------------------------------------------------
1 | 0:00.00 | 6:28.62 | 0 | 29161
2 | 6:28.62 | 4:36.00 | 29162 | 49861
3 | 11:04.62 | 3:19.00 | 49862 | 64786
4 | 14:23.62 | 4:33.00 | 64787 | 85261
5 | 18:56.62 | 4:32.00 | 85262 | 105661
6 | 23:28.62 | 3:38.38 | 105662 | 122049
7 | 27:07.25 | 1:36.37 | 122050 | 129286
8 | 28:43.62 | 2:14.00 | 129287 | 139336
9 | 30:57.62 | 1:29.25 | 139337 | 146036
10 | 32:27.12 | 3:49.25 | 146037 | 163236
11 | 36:16.37 | 3:42.25 | 163237 | 179911
12 | 39:58.62 | 1:24.25 | 179912 | 186236
13 | 41:23.12 | 2:08.13 | 186237 | 195849
14 | 43:31.25 | 2:08.25 | 195850 | 205474
15 | 45:39.50 | 1:06.37 | 205475 | 210461
16 | 46:46.12 | 2:19.50 | 210462 | 220936
17 | 49:05.62 | 3:46.00 | 220937 | 237886
18 | 52:51.62 | 4:00.38 | 237887 | 255924
19 | 56:52.25 | 1:29.37 | 255925 | 262636
20 | 58:21.62 | 2:35.13 | 262637 | 274274
Range status and errors
Selected range
Filename D:\EAC\Bretan - Luceafarul, Hary.wav
Peak level 88.5 %
Extraction speed 4.7 X
Range quality 99.9 %
Test CRC F9B2ABD9
Copy CRC F9B2ABD9
Copy OK
No errors occurred
AccurateRip summary
Track 1 accurately ripped (confidence 2) [4C4CA4FD] (AR v2)
Track 2 accurately ripped (confidence 2) [D08CEEC9] (AR v2)
Track 3 accurately ripped (confidence 2) [60231515] (AR v2)
Track 4 accurately ripped (confidence 2) [E2210C6D] (AR v2)
Track 5 accurately ripped (confidence 2) [1286E30C] (AR v2)
Track 6 accurately ripped (confidence 2) [6F471F71] (AR v2)
Track 7 accurately ripped (confidence 2) [3ECAAD04] (AR v2)
Track 8 accurately ripped (confidence 2) [13F79E5A] (AR v2)
Track 9 accurately ripped (confidence 2) [BFFD63EB] (AR v2)
Track 10 accurately ripped (confidence 2) [A2A647F5] (AR v2)
Track 11 accurately ripped (confidence 2) [CF1D216D] (AR v2)
Track 12 accurately ripped (confidence 2) [DC8E5955] (AR v2)
Track 13 accurately ripped (confidence 2) [2288246D] (AR v2)
Track 14 accurately ripped (confidence 2) [C6436DFE] (AR v2)
Track 15 accurately ripped (confidence 2) [1EE45443] (AR v2)
Track 16 accurately ripped (confidence 2) [53261E93] (AR v2)
Track 17 accurately ripped (confidence 1) [8F6937D7] (AR v2)
Track 18 accurately ripped (confidence 2) [636600C6] (AR v2)
Track 19 accurately ripped (confidence 2) [A3440326] (AR v2)
Track 20 accurately ripped (confidence 2) [C698AE24] (AR v2)
All tracks accurately ripped
End of status report
---- CUETools DB Plugin V2.1.3
[CTDB TOCID: HnJAlPlvIP5ioteJurYdj9W6_tI-] found, Submit result: HnJAlPlvIP5ioteJurYdj9W6_tI- has been confirmed
[b19bfeb7] (2/2) Accurately ripped
==== Log checksum 4E7DA954CEF63050307FFA2E2A701A9C25304C017D68AE2BCBAF19F804BDEE41 ====

Содержание индексной карты (.CUE)

REM GENRE Opera
REM DATE 1996
REM DISCID 280E4914
REM COMMENT "ExactAudioCopy v1.0b3"
CATALOG 0710357546327
PERFORMER "Bretan"
TITLE "Luceafarul, Hary"
FILE "Bretan - Luceafarul, Hary.ape" WAVE
TRACK 01 AUDIO
TITLE "Prologue"
PERFORMER "Bretan"
ISRC GBAJU9400513
INDEX 01 00:00:00
TRACK 02 AUDIO
TITLE "Osana! Osana!"
PERFORMER "Bretan"
ISRC GBAJU9400514
INDEX 01 06:28:62
TRACK 03 AUDIO
TITLE "Hyperion, ce din Genuni"
PERFORMER "Bretan"
ISRC GBAJU9400515
INDEX 01 11:04:62
TRACK 04 AUDIO
TITLE "Luceafar Bland"
PERFORMER "Bretan"
ISRC GBAJU9400516
INDEX 01 14:23:62
TRACK 05 AUDIO
TITLE "Act 1"
PERFORMER "Bretan"
ISRC GBAJU9400517
INDEX 01 18:56:62
TRACK 06 AUDIO
TITLE "Odat' Vorbind cu el in somn"
PERFORMER "Bretan"
ISRC GBAJU9400518
INDEX 01 23:28:62
TRACK 07 AUDIO
TITLE "Mare-i linâ, luna-i plina"
PERFORMER "Bretan"
ISRC GBAJU9400519
INDEX 01 27:07:25
TRACK 08 AUDIO
TITLE "Cobori in Jos, Luceafar Bland"
PERFORMER "Bretan"
ISRC GBAJU9400520
INDEX 01 28:43:62
TRACK 09 AUDIO
TITLE "Din Sfera mea venii cu greu"
PERFORMER "Bretan"
ISRC GBAJU9400521
INDEX 01 30:57:62
TRACK 10 AUDIO
TITLE "O, esti frumos cm numa-n vis"
PERFORMER "Bretan"
ISRC GBAJU9400522
INDEX 01 32:27:12
TRACK 11 AUDIO
TITLE "Strain la vorba si la port"
PERFORMER "Bretan"
ISRC GBAJU9400523
INDEX 01 36:16:37
TRACK 12 AUDIO
TITLE "Lasa-ti lumea, lumea ta uitala"
PERFORMER "Bretan"
ISRC GBAJU9400524
INDEX 01 39:58:62
TRACK 13 AUDIO
TITLE "La mijloc de codru des"
PERFORMER "Bretan"
ISRC GBAJU9400525
INDEX 01 41:23:12
TRACK 14 AUDIO
TITLE "Cum vanatoru-ntinde-n crang"
PERFORMER "Bretan"
ISRC GBAJU9400525
INDEX 01 43:31:25
TRACK 15 AUDIO
TITLE "O lasa-mi capul meu pe san"
PERFORMER "Bretan"
ISRC GBAJU9400527
INDEX 01 45:39:50
TRACK 16 AUDIO
TITLE "Na dir de cruduk kui amor"
PERFORMER "Bretan"
ISRC GBAJU9400528
INDEX 01 46:46:12
TRACK 17 AUDIO
TITLE "Oatrunde trist cu raze reci"
PERFORMER "Bretan"
ISRC GBAJU9400528
INDEX 01 49:05:62
TRACK 18 AUDIO
TITLE "Epilogue"
PERFORMER "Bretan"
ISRC GBAJU9400530
INDEX 01 52:51:62
TRACK 19 AUDIO
TITLE "Ce-ti pasa tie chip lut"
PERFORMER "Bretan"
ISRC GBAJU9400530
INDEX 01 56:52:25
TRACK 20 AUDIO
TITLE "Traind in cercul vostru stramt"
PERFORMER "Bretan"
ISRC GBAJU9400532
INDEX 01 58:21:62
Доп. информация:
My traversal of the recorded operas of Nicolae Bretan ends rather incongruously with his earliest work in the genre, Luceafărul (The Evening Star).
With a playing time of around one hour it is a substantial work.
By 1921, when the opera was premiered, Bretan was already a mature composer in his mid-30s.
The opera is based on a poem by Mihai Eminescu although Bretan wrote the libretto himself.
It is a kind of parable, dealing with love, desire, fulfilment and loss.
In this opera the Evening Star has fallen in love with the King’s Daughter and is prepared to renounce his immortality for love.
The Archangel Michael and the Chorus of Stars try to stop him but he plunges to earth, into the ocean.
In the meantime the King’s Daughter has fallen in love with the Evening Star, having heard her Lady-in-Waiting telling a story about this.
When the Evening Star appears before her in human form she feels he is alien and can’t accept his love.
Instead she falls in love with the Page who comes to ask for her hand and they sing a duet ‘in which they praise death as the final destination in life and declare their ultimate place of rest to be by the sea.’
In the Epilogue the Evening Star has returned to his place in the heavens, sees the two lovers and realizes that his dream was unrealistic.
He accepts his fate of immortality.
Bretan’s choice of this poem became a symbol for his own youthful love to Maria Scridon – never expressed – and he felt he was the Evening Star.
Without knowing this one could almost guess that there was a personal inspiration behind this music: it is so filled with beauty, warmth, passion and longing.
Long stretches are pastoral, even sacred in tone.
The prelude seems to have emanated from Die Zauberflöte – the priests – and the Chorus of Stars is also heavenly.
The postlude of the Prologue is a marvellous composition with first an English horn, then a French horn and then a trumpet.
The ballet pantomime opening the Act is in a vein reminiscent of Lars-Erik Larsson’s pastoral music from the late 1930s.
The Lady-in-Waiting’s tale of the Evening Star and the King’s Daughter, accompanied by harp, is a fine piece.
The scene between the King’s Daughter and the Evening Star (in ‘real life’) has drama as well as lyricism and when the voices intertwine the music rises to ecstatic heights.
Even this is surpassed by the agitated ecstasy of the encounter between the King’s Daughter and the Page.
In the Epilogue we are back in the pastoral mood in which the opera began but wrapped in melancholy.
The Evening Star sings his final words: You live there in your narrow world / A plaything in its hold / While in my boundless world I reign / Both deathless and dead-cold to a movingly beautiful melody, followed by the Chorus of Stars repeating the words.
The music is deeply felt and the singers on this recording have obviously taken it to their hearts.
Béla Hary draws impassioned playing from The Philharmonic Orchestra Transilvania and the anonymous chorus sings beautifully.
Of the soloists Adriana Croitoru as the King’s Daughter stands out with dramatically convincing singing, slightly edgy at the top but with ravishing piano singing.
The mezzo-soprano Elena Casian has a classy voice and narrates her tale with expression.
Balint Szabó in the Archangel’s solo sports a good bass voice, slightly uncomfortable at the top, and Ionel Voineag is a convincing Evening Star, though not without strain. The Page is sung with youthfulness and enthusiasm and a great deal of lyric Schmalz by Ioan Pojar.
The opera unfolds mainly in monologues – arias if you like – and it is only in the confrontation between The King’s Daughter and her two suitors that there is true dialogue.
But everything is laid out in Bretan’s highly personal late-romantic language seasoned with a tinge of folk song.
I have been deeply fascinated by his other operas (Horia: http://teatrix.ru/viewtopic.php?t=4442966 ) as well as his songs (Requiem & Sacred Songs: http://teatrix.ru/viewtopic.php?t=4351476 ) but Luceafărul has a special magic that makes it irresistible.



Показать сообщения:    

Текущее время: 08-Дек 21:12

Часовой пояс: UTC + 3


Вы не можете начинать темы
Вы не можете отвечать на сообщения
Вы не можете редактировать свои сообщения
Вы не можете удалять свои сообщения
Вы не можете голосовать в опросах
Вы не можете прикреплять файлы к сообщениям
Вы не можете скачивать файлы