(Classical) [LP] [24/48] С. Рахманинов - Прелюдии \ Вариации на тему Корелли (Лазарь Берман, фортепиано) - 1980, FLAC (tracks+.cue)


Статистика раздачи [Обновить пиров]
Размер:  418 MB   |    Зарегистрирован:  8 месяцев 20 дней   |    Скачан:  0 раз

Полного источника не было: Никогда

Личеров:  19  [  0 KB/s  ]   Подробная статистика пиров
 
   
 
 
 

[Цитировать]

С. Рахманинов - Прелюдии \ Вариации на тему Корелли (Лазарь Берман, фортепиано)
Жанр: Classical
Носитель: LP
Год выпуска: 1981
Лейбл: Melodya (VSG)
Страна-производитель: USSR
Аудио кодек: FLAC
Тип рипа: tracks+.cue
Формат записи: 32/192
Формат раздачи: 24/48
Продолжительность: 44.06 min
Треклист:
01. до диез минор, соч. 3 № 2
02. фа диез минор, соч. 23 № 1
03. ре мажор, соч. 23 № 4
04. соль диез минор, соч. 32 № 12
05. си минор, соч. 32 № 10
06. си бемоль мажор, соч. 23 №2
07. Вариации на тему Корелли
Источник оцифровки: автором раздачи
Код класса состояния винила: NM
Устройство воспроизведения: Электроника ЭП 017С
Головка звукоснимателя: Audio-Technica AT95
Предварительный усилитель: Бриг-001
АЦП: VIA HD audio device
Программа-оцифровщик: Izotope RX 4 Advanced
Обработка: Manual

Спектр+АЧХ+Уровень записи

DR=14

foobar2000 1.1.10 / Dynamic Range Meter 1.1.1
log date: 2015-01-07 20:46:15
--------------------------------------------------------------------------------
Analyzed: Lazar Berman / Preludes \ Variations On A Theme Of Corelli
--------------------------------------------------------------------------------
DR Peak RMS Duration Track
--------------------------------------------------------------------------------
DR13 -3.59 dB -22.98 dB 5:07 ?-до диез минор, соч. 3 № 2
DR15 -5.89 dB -29.20 dB 4:22 ?-фа диез минор, соч. 23 № 1
DR15 -5.69 dB -26.07 dB 4:20 ?-ре мажор, соч. 23 № 4
DR14 -5.84 dB -24.57 dB 2:32 ?-соль диез минор, соч. 32 № 12
DR12 -3.08 dB -22.65 dB 5:40 ?-си минор, соч. 32 № 10
DR12 -2.87 dB -18.16 dB 3:32 ?-си бемоль мажор, соч. 23 №2
DR15 -3.37 dB -25.11 dB 18:32 ?-Вариации на тему Корелли
--------------------------------------------------------------------------------
Number of tracks: 7
Official DR value: DR14
Samplerate: 48000 Hz
Channels: 2
Bits per sample: 24
Bitrate: 1316 kbps
Codec: FLAC
================================================================================

Back & Disc

[teatrix.ru].t20043.torrent 
Торрент: Зарегистрирован [ 2016-03-19 00:49 ] · 53CD26F56C1317944D59A614AEA5C3BB73ACC104

Скачать .torrent

Скачать

18 KB

Статус: проверено
Скачан: 0 раз
Размер: 418 MB
terms.php



Быстрый ответ

Имя:

      
Для отправки сообщений необходимо включить JavaScript
Показать сообщения:    

Текущее время: 08-Дек 23:13

Часовой пояс: UTC + 3


Вы можете начинать темы
Вы можете отвечать на сообщения
Вы не можете редактировать свои сообщения
Вы не можете удалять свои сообщения
Вы не можете голосовать в опросах
Вы не можете прикреплять файлы к сообщениям
Вы можете скачивать файлы