Гений разведки. Артур Артузов (Андрей Куренков) [2014, Документальный, SATRip]


Статистика раздачи [Обновить пиров]
Размер:  639 MB   |    Зарегистрирован:  8 месяцев 16 дней   |    Скачан:  0 раз

Полного источника не было: Никогда

Личеров:  15  [  0 KB/s  ]   Подробная статистика пиров
 
   
 
 
 

[Цитировать]

Гений разведки. Артур Артузов
Дата/Год выпуска: 2014
Страна: Россия
Жанр: Документальный
Продолжительность: 00:44:39
Перевод: Не требуется
Режиссер: Андрей Куренков
Телеканал: ВГТРК
Описание: В архивах специальных служб похожего личного дела просто не существует: успешный руководитель контрразведки, автор уникальных разведывательных операций, начальник Разведупра РККА Страны Советов...Мы назвали этот фильм "Гений разведки. Артур Артузов" не случайно. Подробности оперативных комбинаций, автором которых был Артур Христианович, поражают своей эффективностью, гроссмейстерской изобретательностью и… трагическим финалом для их вдохновителя! Личный вклад Артузова в формирование специальных органов страны – последующая победа на фронтах в Великой Отечественной!На долгие десятилетия фамилия Артузов в кошмарном 37-м исчезла с лица земли, чтобы возродиться сегодня - в 2014-м! А время, застывшее в годы страшных репрессий, для потомков этого славного имени вновь пошло в наши дни.Документальное телевизионное повествование о блестящем организаторе отечественных органов государственной безопасности, созданное при содействии Службы внешней разведки России.торе отечественных органов государственной безопасности, созданное при содействии Службы внешней разведки России.
Сэмпл: http://multi-up.com/1025125
качество: SATRip
формат: AVI
Видео: XviD, 720x400 (1.80:1), 25 fps, ~1799 kbps avg, 0.25 bit/pixel
Аудио: AC3 Dolby Digital, 2/0 (L,R) ch, 48 kHz, ~192.00 kbps

MediaInfo

Общее
Полное имя : Z:\Гений разведки. Артур Артузов (2014) SATRip.avi
Формат : AVI
Формат/Информация : Audio Video Interleave
Размер файла : 639 Мбайт
Продолжительность : 44 м.
Общий поток : 2002 Кбит/сек
Программа кодирования : VirtualDubMod 1.5.10.3 | www.virtualdub-fr.org || (build 2550/release)
Библиотека кодирования : VirtualDubMod build 2550/release
Видео
Идентификатор : 0
Формат : MPEG-4 Visual
Профиль формата : Advanced Simple@L5
Параметр BVOP формата : 2
Параметр QPel формата : Нет
Параметр GMC формата : Без точки перехода
Параметр матрицы формата : Default (H.263)
Идентификатор кодека : XVID
Идентификатор кодека/Подсказка : XviD
Продолжительность : 44 м.
Битрейт : 1800 Кбит/сек
Ширина : 720 пикселей
Высота : 400 пикселей
Соотношение сторон : 16:9
Частота кадров : 25,000 кадров/сек
Цветовое пространство : YUV
Субдискретизация насыщенности : 4:2:0
Битовая глубина : 8 бит
Тип развёртки : Прогрессивная
Метод сжатия : С потерями
Бит/(Пиксели*Кадры) : 0.250
Размер потока : 575 Мбайт (90%)
Библиотека кодирования : XviD 1.2.1 (UTC 2008-12-04)
Аудио
Идентификатор : 1
Формат : AC-3
Формат/Информация : Audio Coding 3
Расширение режима : CM (complete main)
Параметр Endianness формата : Big
Идентификатор кодека : 2000
Продолжительность : 44 м.
Вид битрейта : Постоянный
Битрейт : 192 Кбит/сек
Каналы : 2 канала
Расположение каналов : Front: L R
Частота : 48,0 КГц
Битовая глубина : 16 бит
Метод сжатия : С потерями
Размер потока : 61,3 Мбайт (10%)
Выравнивание : Разделение по промежуткам
Продолжительность промежутка : 40 мс. (1,00 видеокадр)
Время предзагрузки промежутка : 500 мс.

Скриншоты

[teatrix.ru].t20045.torrent 
Торрент: Зарегистрирован [ 2016-03-19 00:45 ] · 3C0B5FE34DCB5374307A803253C0663BF19ED401

Скачать .torrent

Скачать

13 KB

Статус: проверено
Скачан: 0 раз
Размер: 639 MB
terms.php



Быстрый ответ

Имя:

      
Для отправки сообщений необходимо включить JavaScript
Показать сообщения:    

Текущее время: 04-Дек 06:54

Часовой пояс: UTC + 3


Вы можете начинать темы
Вы можете отвечать на сообщения
Вы не можете редактировать свои сообщения
Вы не можете удалять свои сообщения
Вы не можете голосовать в опросах
Вы не можете прикреплять файлы к сообщениям
Вы можете скачивать файлы