(Classical) Carlo Milanuzzi - Arias and Dances - Lucia Sciannimanico, Cappella di Santa Maria degli Angiolini, Gian Luca Lastraioli - 2013, FLAC (image+.cue) lossless


 

[Цитировать]

Carlo Milanuzzi - Arias and Dances - Lucia Sciannimanico, Cappella di Santa Maria degli Angiolini, Gian Luca Lastraioli
Жанр: Classical
Год издания диска: 2013
Издатель (лейбл): Brilliant Classics
Номер по каталогу: 94714
Дата записи: 2012
Аудиокодек: FLAC
Тип рипа: image+.cue
Битрейт аудио: lossless
Продолжительность: 60:31
Источник: собственный рип
Наличие сканов в содержимом раздачи: да
Треклист:
Carlo Milanuzzi (d.c.1647)
[1] E pur ancora lusingando vai
[2] Amate mie stelle
[3] Lilla, mio cor
[4] Vado altronde, Lidia, addio
[5] Ballo delle torce
[6] Vanne, và, ti fida o mio core
[7] Bergamasca
[8] Si dolce è il tormento
[9] Vedilo, vedilo là
[10] Togliti dagli occhi miei
[11] Battaglia
[12] Rapitemi, feritemi
[13] Amor, altri si duol
[14] Padoana
[15] Non si scherzi con Amore
[16] Fuggi, fuggi dolente core
[17] Ciaccona
[18] Alla Donna sol piace
Исполнители:
Lucia Sciannimanico mezzo-soprano
Cappella di Santa Maria degli Angiolini
Gian Luca Lastraioli
conductor

Лог создания рипа

Exact Audio Copy V1.0 beta 3 from 29. August 2011
EAC extraction logfile from 22. December 2014, 22:56
Lucia Sciannimanico, Cappella di Santa Maria degli Angiolini, Gian Luca Lastraioli / Milanuzzi - Arias and Dances
Used drive : HL-DT-STDVDRAM GU70N Adapter: 0 ID: 0
Read mode : Secure
Utilize accurate stream : Yes
Defeat audio cache : Yes
Make use of C2 pointers : No
Read offset correction : 48
Overread into Lead-In and Lead-Out : No
Fill up missing offset samples with silence : Yes
Delete leading and trailing silent blocks : No
Null samples used in CRC calculations : Yes
Used interface : Native Win32 interface for Win NT & 2000
Used output format : User Defined Encoder
Selected bitrate : 128 kBit/s
Quality : High
Add ID3 tag : No
Command line compressor : C:\Program Files (x86)\Exact Audio Copy\Flac\flac.exe
Additional command line options : -V -8 -T "Date=%year%" -T "Genre=%genre%" %source%
TOC of the extracted CD
Track | Start | Length | Start sector | End sector
---------------------------------------------------------
1 | 0:00.00 | 3:54.36 | 0 | 17585
2 | 3:54.36 | 5:53.03 | 17586 | 44063
3 | 9:47.39 | 4:17.00 | 44064 | 63338
4 | 14:04.39 | 2:54.39 | 63339 | 76427
5 | 16:59.03 | 2:24.60 | 76428 | 87287
6 | 19:23.63 | 3:42.12 | 87288 | 103949
7 | 23:06.00 | 2:46.51 | 103950 | 116450
8 | 25:52.51 | 4:08.54 | 116451 | 135104
9 | 30:01.30 | 2:33.18 | 135105 | 146597
10 | 32:34.48 | 2:25.56 | 146598 | 157528
11 | 35:00.29 | 2:54.30 | 157529 | 170608
12 | 37:54.59 | 2:42.06 | 170609 | 182764
13 | 40:36.65 | 3:22.17 | 182765 | 197931
14 | 43:59.07 | 4:21.50 | 197932 | 217556
15 | 48:20.57 | 3:30.09 | 217557 | 233315
16 | 51:50.66 | 3:42.59 | 233316 | 250024
17 | 55:33.50 | 2:16.24 | 250025 | 260248
18 | 57:49.74 | 2:41.32 | 260249 | 272355
Range status and errors
Selected range
Filename C:\temp\Milanuzzi - Arias and Dances\Milanuzzi - Arias and Dances.wav
Peak level 94.4 %
Extraction speed 2.0 X
Range quality 99.9 %
Test CRC 0EE4469B
Copy CRC 0EE4469B
Copy OK
No errors occurred
AccurateRip summary
Track 1 not present in database
Track 2 not present in database
Track 3 not present in database
Track 4 not present in database
Track 5 not present in database
Track 6 not present in database
Track 7 not present in database
Track 8 not present in database
Track 9 not present in database
Track 10 not present in database
Track 11 not present in database
Track 12 not present in database
Track 13 not present in database
Track 14 not present in database
Track 15 not present in database
Track 16 not present in database
Track 17 not present in database
Track 18 not present in database
None of the tracks are present in the AccurateRip database
End of status report
==== Log checksum 845E887330D27B735BD9793286EDA073523B7E36AE58BD82B9F541349E545A60 ====



Показать сообщения:    

Текущее время: 04-Дек 15:18

Часовой пояс: UTC + 3


Вы не можете начинать темы
Вы не можете отвечать на сообщения
Вы не можете редактировать свои сообщения
Вы не можете удалять свои сообщения
Вы не можете голосовать в опросах
Вы не можете прикреплять файлы к сообщениям
Вы не можете скачивать файлы