George Handel, Franz Liszt, Johannes Brahms, Сергей Рахманинов, Camille Saint-Saens, Михаил Глинка, Franz Schubert - Концерт Ирины Архиповой [1967 г., Фильм-концерт, TVRip]


Статистика раздачи [Обновить пиров]
Размер:  744 MB   |    Зарегистрирован:  8 месяцев 22 дня   |    Скачан:  0 раз

Полного источника не было: Никогда

Личеров:  19  [  0 KB/s  ]   Подробная статистика пиров
 
   
 
 
 

[Цитировать]

Концерт Ирины Архиповой Год выпуска: 1967.
Жанр: Фильм-концерт.
Продолжительность: 01:21:36.
Исполнитель: Ирина Архипова.
Партия рояля: Наталия Рассудова.
Описание:
Концерт солистки Большого театра, народной артистки СССР Ирины Архиповой.

Трек-лист

01. Ария из оратории "Геракл" (Гендель),
02. "Радость и горе" (Лист),
03. "Лорелея" (Лист),
04. "Миньон",
05. "Верная любовь" (Брамс),
06. "Напрасная серенада" (Брамс),
07. "Майская ночь" (Брамс),
08. "Моя юная любовь" (Брамс),
09. "В молчаньи ночи тайной" (Рахманинов),
10. "О, не грусти по мне" (Рахманинов),
11. "Сирень" (Рахманинов),
12. "Со мной мой друг" (Рахманинов),
13. (из Гейне) (Рахманинов),
14. Отрывок из Мюссе (Рахманинов),
15. "Не пой, красавица, при мне" (Рахманинов),
16. "Я жду тебя" (Рахманинов),
17. Ария Далилы (Сен-Санс),
18. "К ней" (Глинка),
19. "Аве Мария" (Шуберт).
Дополнительная информация:
Страна: СССР .
Релиз
Качество видео:...TVRip
Формат:.................AVI
Видео:..704x528 (1.33:1), 25 fps, XviD MPEG-4 ~1136 kbps avg, 0.12 bit/pixel
Аудио:..44.100 kHz, MPEG Layer 3, 2 ch, ~128.00 kbps avg

Отчет MI

Общее
Полное имя : Koncert.Iriny.Arhipovoj.1967.XviD.TVRip.fenixclub.avi
Формат : AVI
Формат/Информация : Audio Video Interleave
Размер файла : 744 Мбайт
Продолжительность : 1 ч. 21 м.
Общий поток : 1275 Кбит/сек
Программа кодирования : VirtualDubModRus 1.5.10.2 (build 2542/release)
Библиотека кодирования : VirtualDubMod build 2542/release
Видео
Идентификатор : 0
Формат : MPEG-4 Visual
Профиль формата : Advanced Simple@L5
Параметр BVOP формата : 2
Параметр QPel формата : Нет
Параметр GMC формата : Без точки перехода
Параметр матрицы формата : Default (H.263)
Режим смешивания : Сжатый битовый поток
Идентификатор кодека : XVID
Идентификатор кодека/Подсказка : XviD
Продолжительность : 1 ч. 21 м.
Битрейт : 1137 Кбит/сек
Ширина : 704 пикселя
Высота : 528 пикселей
Соотношение сторон : 4:3
Частота кадров : 25,000 кадров/сек
Цветовое пространство : YUV
Субдискретизация насыщенности : 4:2:0
Битовая глубина : 8 бит
Тип развёртки : Прогрессивная
Метод сжатия : С потерями
Бит/(Пиксели*Кадры) : 0.122
Размер потока : 664 Мбайт (89%)
Библиотека кодирования : XviD 1.2.1 (UTC 2008-12-04)
Аудио
Идентификатор : 1
Формат : MPEG Audio
Версия формата : Version 1
Профиль формата : Layer 3
Режим : Joint stereo
Расширение режима : MS Stereo
Идентификатор кодека : 55
Идентификатор кодека/Подсказка : MP3
Продолжительность : 1 ч. 21 м.
Вид битрейта : Постоянный
Битрейт : 128 Кбит/сек
Каналы : 2 канала
Частота : 44,1 КГц
Метод сжатия : С потерями
Размер потока : 74,7 Мбайт (10%)
Выравнивание : Разделение по промежуткам
Продолжительность промежутка : 40 мс. (1,00 видеокадр)
Время предзагрузки промежутка : 500 мс.

Скриншоты

Альтернативный хост

[teatrix.ru].t20047.torrent 
Торрент: Зарегистрирован [ 2016-03-19 00:49 ] · 5C4DDB5824F2F5644402538E2CB07B0D475FFEC2

Скачать .torrent

Скачать

15 KB

Статус: проверено
Скачан: 0 раз
Размер: 744 MB
terms.php



Быстрый ответ

Имя:

      
Для отправки сообщений необходимо включить JavaScript
Показать сообщения:    

Текущее время: 10-Дек 11:49

Часовой пояс: UTC + 3


Вы можете начинать темы
Вы можете отвечать на сообщения
Вы не можете редактировать свои сообщения
Вы не можете удалять свои сообщения
Вы не можете голосовать в опросах
Вы не можете прикреплять файлы к сообщениям
Вы можете скачивать файлы