Джоаккино Россини - Турок в Италии (Театр Карло Феличе в Генуи; Эджисто Маркуччи, Андреа Дориго; Джонатан Уэбб) / Rossini - Il Turco in Italia (Teatro Carlo Felice di Genova; Egisto Marcucci, Andrea Dorigo; Jonathan Webb) [2009, Opera, Blu-ray 1080i]


 

[Цитировать]

Джоаккино Россини - Турок в Италии / Rossini - Il Turco in Italia
Год выпуска: 2009
Лейбл: Arthaus Musik
Страна-производитель: США
Жанр: Opera
Продолжительность: 02:42:54
Язык: Итальянский
Субтитры: Английские, французские, немецкие, итальянские, испанские, японские
Режиссеры: Egisto Marcucci (Эджисто Маркуччи), Andrea Dorigo (Андреа Дориго)
Дирижер: Jonathan Webb (Джонатан Уэбб)
Исполнители:
Simone Alaimo (Симон Алаймо) - Selim,
Myrtò Papatanasiu (Мирта Папатанасиу) - Dona Fiorilla,
Bruno de Simone (Бруно де Симоно) - Don Geronio,
Antonino Siragusa (Антлонио Сирагуза) - Don Narciso,
Vincenzo Taormina (Винченцо Таормина) - Prosdocimo,
Antonella Nappa (Антонелла Наппа) - Zaida,
Federico Lepre (Федерик Лепре) - Albazar
Chorus and Orchestra of the Teatro Carlo Felice (оркестр и хор Театра Карло Феличе)
Описание:
Действие происходит в дачных окрестностях Неаполя и в доме дона Джеронио.
Поэт Просдочимо, сочиняющий новую пьесу, ищет вдохновения в стане цыган. Там он встречает богача Джеронио и молодую цыганку Зайду, которая когда-то была связана с турецким принцем и ещё любит его. Гадая по руке Джеронио, она открывает ему, что жена ему изменяет. Когда богач взвращается домой, он действительно застаёт там свою жену Фьориллу с Селимом, который отрывает ему, что он и есть тот самый турецкий принц, которого так любит Зайда. Довольный найденным для своей драмы сюжетом, Просдочимо задумывает ещё больше запутать его и договаривается с молодой цыганкой: именно она будет ждать Селима на свидании вместо Фьориллы. Но во время встречи неожиданно появляется и последняя. Следом появляется Джеронио, и возникает перебранка. Наконец турецкий принц во время костюмированного бала сбегает вместе с неверной женой Джеронио. Но вездесущий поэт предупреждает обманутого мужа и Заиду, которые появляются на празднике, переодетые Фьориллой и турком. После целого фейерверка недоразумений на берегу встречаются Зайда и Фьорилла, Селим и Нарчизо, поклонник Фьореллы, которого цыганка обменяла на любимого принца. Старая любовь между нею и турком возрождается, а жена Джеранио возвращается к мужу. Просдочимо доволен: ему удалось завершить свою пьесу.

Оригинальное описание

Il Turco in Italia is one of Rossini‘s wittiest but most neglected works. It is full of ingenious and freshly composed invention. It is Rossini‘s first collaboration with Felice Romani - Bellini‘s librettist - on this opera and Romani understood perfectly Rossini‘s love of pastiche and parody. He provided a commedia dell‘ arte scenario that gave Rossini plenty of opportunity to mock traditions he had helped to cultivate in the first place. The plot is delightfully salacious and among the many jewels in the score, the duet for Geronio and Selim, in which the Turk tries to persuade the ageing husband to sell his wife to him, is widely considered one of the composer‘s masterpieces. Amongst the singers are the highly sought-after Sicilian bass Simone Alaimo, the Greek soprano Myrtò Papatanasiu, who became known to a wider public after her appearance as Violetta in Zeffirelli’s Traviata in Romein 2007 and the legendary basso-buffo and pupil of Bruscantini, Bruno de Simone.
Recorded live from the Teatro Carlo Felice di Genova, 2009.
Бонус: Five trailers
Об опере
Качество видео: Blu-ray
Формат/Контейнер: BDMV
Видео кодек: MPEG4
Аудио кодек: LPCM, DTS
Видео поток: MPEG-4 Video, 1920x1080, 8488 kbps, 29.970 fps
Аудио поток: LPCM, 1536 kbps, 48 kHz, 2 ch. DTS-HD MA, 4995 kbps, 48 kHz, 8 ch

BD-Info

DISC INFO:
Disc Title: Россини - Турок в Италии (Teatro Carlo Felice di Genova) (2009) (Blu-ray 1080i, AVC, DTS-HD 7.1)
Disc Size: 21 853 082 640 bytes
Protection: AACS
BD-Java: No
BDInfo: 0.5.8
PLAYLIST REPORT:
Name: 00001.MPLS
Length: 2:42:54.131 (h:m:s.ms)
Size: 19 956 756 480 bytes
Total Bitrate: 16,33 Mbps
VIDEO:
Codec Bitrate Description
----- ------- -----------
MPEG-4 AVC Video 8488 kbps 1080i / 29,970 fps / 16:9 / High Profile 4.1
AUDIO:
Codec Language Bitrate Description
----- -------- ------- -----------
LPCM Audio Undetermined 1536 kbps 2.0 / 48 kHz / 1536 kbps / 16-bit
DTS-HD Master Audio Undetermined 4995 kbps 7.1 / 48 kHz / 4995 kbps / 24-bit (DTS Core: 5.1 / 48 kHz / 1509 kbps / 24-bit)
SUBTITLES:
Codec Language Bitrate Description
----- -------- ------- -----------
Presentation Graphics Italian 15,102 kbps
Presentation Graphics English 15,945 kbps
Presentation Graphics German 17,642 kbps
Presentation Graphics French 16,505 kbps
Presentation Graphics Spanish 15,545 kbps
Presentation Graphics Japanese 16,238 kbps
FILES:
Name Time In Length Size Total Bitrate
---- ------- ------ ---- -------------
00000.M2TS 0:00:00.000 1:31:39.494 11 209 261 056 16 306
00001.M2TS 1:31:39.494 1:11:00.256 8 746 371 072 16 424
00005.M2TS 2:42:39.750 0:00:14.047 1 112 064 633
00003.M2TS 2:42:53.797 0:00:00.333 12 288 295
Семпл

Скриншоты


Скриншоты доп. материалов




Показать сообщения:    

Текущее время: 06-Дек 11:14

Часовой пояс: UTC + 3


Вы не можете начинать темы
Вы не можете отвечать на сообщения
Вы не можете редактировать свои сообщения
Вы не можете удалять свои сообщения
Вы не можете голосовать в опросах
Вы не можете прикреплять файлы к сообщениям
Вы не можете скачивать файлы