Руки Вверх "18 нам уже" концерт / Эфир от 03.01.2015 / RuTV [03.01.2015, Документальный, Музыка, XviD, SATRip]


Статистика раздачи [Обновить пиров]
Размер:  1.89 GB   |    Зарегистрирован:  8 месяцев 20 дней   |    Скачан:  0 раз

Полного источника не было: Никогда

Личеров:  22  [  0 KB/s  ]   Подробная статистика пиров
 
   
 
 
 

[Цитировать]

- -Руки Вверх "18 нам уже" концерт / Эфир от 03.01.2015-Жанр: Документальный, Музыка
Дата/Год выпуска: 03.01.2015
Язык комментариев: Русский
Перевод: Не требуется
Дополнительная информация: За исходник спасибо kabal3000
Телеканал: RuTV

-Автор рипа/записи: Arsenal15-Качество: SATRip
Формат видео: avi
Видео: 720х400 (16:9), 25,000 кадров/сек, XviD, ~1900 Кбит/сек
Аудио: 48,0 КГц, MP3, 2 ch, ~128 Кбит/сек
-

Продолжительность

02:07:45
-

MediaInfo

E:\Мои релизы\Руки Вверх 18 нам уже концерт  Эфир от 03.01.2015  RuTV.avi
General
Complete name : E:\Мои релизы\Руки Вверх 18 нам уже концерт Эфир от 03.01.2015 RuTV.avi
Format : AVI
Format/Info : Audio Video Interleave
File size : 1.89 GiB
Duration : 2h 7mn
Overall bit rate : 2 123 Kbps
Writing application : VirtualDubMod 1.5.10.3 | www.virtualdub-fr.org || (build 2550/release)
Writing library : VirtualDubMod build 2550/release
Video #0
ID : 0
Format : MPEG-4 Visual
Format profile : AdvancedSimple@L5
Format settings, BVOP : Yes
Format settings, QPel : No
Format settings, GMC : No warppoints
Format settings, Matrix : Default (H.263)
Codec ID : XVID
Codec ID/Hint : XviD
Duration : 2h 7mn
Bit rate : 1 985 Kbps
Width : 720 pixels
Height : 400 pixels
Display aspect ratio : 16:9
Frame rate : 25.000 fps
Resolution : 24 bits
Colorimetry : 4:2:0
Scan type : Progressive
Bits/(Pixel*Frame) : 0.276
Stream size : 1.77 GiB (94%)
Writing library : XviD 1.2.1 (UTC 2008-12-04)
Audio #1
ID : 1
Format : MPEG Audio
Format version : Version 1
Format profile : Layer 3
Codec ID : 55
Codec ID/Hint : MP3
Duration : 2h 7mn
Bit rate mode : Constant
Bit rate : 128 Kbps
Channel(s) : 2 channels
Sampling rate : 48.0 KHz
Resolution : 16 bits
Stream size : 117 MiB (6%)
Alignment : Aligned on interleaves
Interleave, duration : 40 ms (1.00 video frame)
Interleave, preload duration : 504 ms
Writing library : LAME3.99r
Encoding settings : -m s -V 4 -q 2 -lowpass 17 -b 128
- -
[teatrix.ru].t20051.torrent 
Торрент: Зарегистрирован [ 2016-03-19 00:48 ] · 15A504D307C276D34BB1D37B56D906CB2A7F3A19

Скачать .torrent

Скачать

19 KB

Статус: проверено
Скачан: 0 раз
Размер: 1.89 GB
terms.php



Быстрый ответ

Имя:

      
Для отправки сообщений необходимо включить JavaScript
Показать сообщения:    

Текущее время: 08-Дек 03:14

Часовой пояс: UTC + 3


Вы можете начинать темы
Вы можете отвечать на сообщения
Вы не можете редактировать свои сообщения
Вы не можете удалять свои сообщения
Вы не можете голосовать в опросах
Вы не можете прикреплять файлы к сообщениям
Вы можете скачивать файлы