Планета Йога / Planete Yoga / Planet Yoga (Карлос Ферран / Carlos Ferrand) [2011, документальный, йога, DVB] Original (Fre) + Sub (rus)


Статистика раздачи [Обновить пиров]
Размер:  1.75 GB   |    Зарегистрирован:  8 месяцев 21 день   |    Скачан:  0 раз

Полного источника не было: Никогда

Личеров:  16  [  0 KB/s  ]   Подробная статистика пиров
 
   
 
 
 

[Цитировать]

Планета Йога
Planète Yoga- Страна: Канада
Тематика: йога
Тип раздаваемого материала: документальный фильм
Продолжительность: 01:26:59
Год выпуска: 2011
Язык: французский
Перевод: Субтитры (перевод И.Рыбкиной, Éclair Group)
Язык субтитров: rus
Режиссер: Карлос Ферран / Carlos FerrandОписание: Фильм канадских документалистов пытается ответить на вопрос: Откуда у современного цивилизованного человека такая тяга к древней ортодоксальной индуистской и буддистской философии?
Доп. информация: TV5MONDE DVB-S. Во время нефранцузской речи на экране дополнительно вшитые французские субтитры.
Участник Vancouver International Film Festival 2011; Festival du nouveau cinéma Montréal 2011; Tofino Film Festival 2011; Rendez-vous du cinéma québécois (RVCQ) 2012.

Качество: DVB
Формат: MKV
Видео кодек: MPEG2
Аудио кодек: MP2
Видео: MPEG Video 2, 704x576@1024x576 (16:9), 25 fps, ~2623 kbps avg, 0.259 bit/pixel
Аудио: Французский (MPEG Audio 2, 2 ch, 48 kHz, ~192.00 kbps avg)

MediaInfo

Общее
Уникальный идентификатор : 239850696749526224947524939287405149181 (0xB471905C176F962B8975BBACC35A3BFD)
Полное имя : E:\My Torrents 2\[apreder]Planete_Yoga(2011)DVB.mkv
Формат : Matroska
Версия формата : Version 2
Размер файла : 1,75 Гбайт
Продолжительность : 1 ч. 26 м.
Режим общего битрейта : Переменный
Общий поток : 2872 Кбит/сек
Дата кодирования : UTC 2015-01-08 16:02:49
Программа кодирования : mkvmerge v7.5.0 ('Glass Culture') 64bit built on Jan 4 2015 16:48:44
Библиотека кодирования : libebml v1.3.1 + libmatroska v1.4.2
Видео
Идентификатор : 1
Формат : MPEG Video
Версия формата : Version 2
Профиль формата : Main@Main
Параметр BVOP формата : Да
Параметр матрицы формата : Выборочная
Параметр GOP формата : M=3, N=15
Format_Settings_PictureStructure : Frame
Идентификатор кодека : V_MPEG2
Идентификатор кодека/Информация : MPEG 1 or 2 Video
Продолжительность : 1 ч. 26 м.
Вид битрейта : Переменный
Битрейт : 2623 Кбит/сек
Ширина : 704 пикселя
Высота : 576 пикселей
Соотношение сторон : 16:9
Режим частоты кадров : Постоянный
Частота кадров : 25,000 кадров/сек
Стандарт вещания : PAL
Цветовое пространство : YUV
Субдискретизация насыщенности : 4:2:0
Битовая глубина : 8 бит
Тип развёртки : Чересстрочная
Порядок развёртки : Верхнее поле первое
Метод сжатия : С потерями
Бит/(Пиксели*Кадры) : 0.259
Временной код первого кадра : 00:00:00:00
Оригинал временного кода : Group of pictures header
Размер потока : 1,59 Гбайт (91%)
Default : Да
Forced : Нет
Gop_OpenClosed_FirstFrame : Closed
Аудио
Идентификатор : 2
Формат : MPEG Audio
Версия формата : Version 1
Профиль формата : Layer 2
Идентификатор кодека : A_MPEG/L2
Идентификатор кодека/Подсказка : MP2
Продолжительность : 1 ч. 26 м.
Вид битрейта : Постоянный
Битрейт : 192 Кбит/сек
Каналы : 2 канала
Частота : 48,0 КГц
Метод сжатия : С потерями
Размер потока : 119 Мбайт (7%)
Язык : French
Default : Да
Forced : Нет

Скриншоты


Резервные скриншоты


-[2'039]
[teatrix.ru].t20052.torrent 
Торрент: Зарегистрирован [ 2016-03-19 00:47 ] · A9453EBC6E06660373D54D49328A191C2B313018

Скачать .torrent

Скачать

18 KB

Статус: проверено
Скачан: 0 раз
Размер: 1.75 GB
terms.php



Быстрый ответ

Имя:

      
Для отправки сообщений необходимо включить JavaScript
Показать сообщения:    

Текущее время: 09-Дек 16:37

Часовой пояс: UTC + 3


Вы можете начинать темы
Вы можете отвечать на сообщения
Вы не можете редактировать свои сообщения
Вы не можете удалять свои сообщения
Вы не можете голосовать в опросах
Вы не можете прикреплять файлы к сообщениям
Вы можете скачивать файлы