(Classical) [LP] [24/48] J. S. Bach - Toccatas (Harry Grodberg - Organ) - 1980, FLAC (tracks+.cue)


Статистика раздачи [Обновить пиров]
Размер:  522 MB   |    Зарегистрирован:  8 месяцев 15 дней   |    Скачан:  0 раз

Полного источника не было: Никогда

Личеров:  12  [  0 KB/s  ]   Подробная статистика пиров
 
   
 
 
 

[Цитировать]

J. S. Bach - Toccatas BWV 564 (Harry Grodberg - Organ)
Жанр: Classical
Носитель: LP
Год выпуска: 1980
Лейбл: Melodya
Страна-производитель: USSR
Аудио кодек: FLAC
Тип рипа: tracks+.cue
Формат записи: 32/192
Формат раздачи: 24/48
Продолжительность: 48.22 min
Треклист:
01. Toccata in D Minor, B. 565
02. Toccata in C Bajor, B. 564 - (allegro)
03. Toccata in C Bajor, B. 565 - Adagio
04. Toccata in C Bajor, B. 565 - Fuga
05. Prelude (Toccata) and Fugue (Dorian) in D Minor, B. 538 - (Allegro)
06. Prelude (Toccata) and Fugue (Dorian) in D Minor, B. 538 - Fuga
07. Toccata (Preludium et Fuga) in E Major, B. 566
Источник оцифровки: автором раздачи
Код класса состояния винила: NM
Устройство воспроизведения: Электроника ЭП 017С
Головка звукоснимателя: Audio-Technica AT95
Предварительный усилитель: Бриг-001
АЦП: VIA HD audio device
Программа-оцифровщик: Izotope RX 4 Advanced
Обработка: Manual

Спектр+АЧХ+Уровень записи

DR=11

foobar2000 1.1.10 / Dynamic Range Meter 1.1.1
log date: 2015-01-08 21:01:13
--------------------------------------------------------------------------------
Analyzed: Harry Gromberg / Toccatas
--------------------------------------------------------------------------------
DR Peak RMS Duration Track
--------------------------------------------------------------------------------
DR11 -7.39 dB -21.85 dB 8:26 ?-Toccata in D Minor, B. 565
DR11 -7.79 dB -23.10 dB 6:16 ?-Toccata in C Bajor, B. 565 - (allegro)
DR10 -9.18 dB -25.79 dB 4:53 ?-Toccata in C Bajor, B. 565 - Adagio
DR13 -8.66 dB -24.99 dB 5:13 ?-Toccata in C Bajor, B. 565 - Fuga
DR11 -3.38 dB -16.74 dB 5:46 ?-Prelude (Toccata) and Fugue (Dorian) in D Minor, B. 538 - (Allegro)
DR11 -3.48 dB -17.57 dB 6:47 ?-Prelude (Toccata) and Fugue (Dorian) in D Minor, B. 538 - Fuga
DR11 -2.91 dB -17.50 dB 11:01 ?-Toccata (Preludium et Fuga) in E Major, B. 566
--------------------------------------------------------------------------------
Number of tracks: 7
Official DR value: DR11
Samplerate: 48000 Hz
Channels: 2
Bits per sample: 24
Bitrate: 1494 kbps
Codec: FLAC
================================================================================

Back & Disc

[teatrix.ru].t20053.torrent 
Торрент: Зарегистрирован [ 2016-03-19 00:52 ] · D4D6C5E330DB4E884044630861CBF687B9CF7D24

Скачать .torrent

Скачать

12 KB

Статус: проверено
Скачан: 0 раз
Размер: 522 MB
terms.php



Быстрый ответ

Имя:

      
Для отправки сообщений необходимо включить JavaScript
Показать сообщения:    

Текущее время: 03-Дек 14:38

Часовой пояс: UTC + 3


Вы можете начинать темы
Вы можете отвечать на сообщения
Вы не можете редактировать свои сообщения
Вы не можете удалять свои сообщения
Вы не можете голосовать в опросах
Вы не можете прикреплять файлы к сообщениям
Вы можете скачивать файлы