Следы на снегу (Владимир Козлов) [2014, документальный, WEBRip]


Статистика раздачи [Обновить пиров]
Размер:  407 MB   |    Зарегистрирован:  10 месяцев 1 день   |    Скачан:  0 раз

Полного источника не было: Никогда

Личеров:  12  [  0 KB/s  ]   Подробная статистика пиров
 
   
 
 
 

[Цитировать]

Следы на снегу
Дата/Год выпуска: 2014
Страна: Россия
Жанр: документальный
Продолжительность: 01:05:50
Перевод: Не требуется
Режиссер: Владимир Козлов
Описание: Фильм рассказывает о сибирском панк-роке второй половины 1980-х – начала 1990-х годов – феномене, оказавшем большое влияние на культурную и политическую жизнь страны того времени, но сегодня практически забытом.
Первая и практически единственная панк-рок сцена в СССР во второй половине 1980-х образовалась не в Москве или Ленинграде, а в гораздо менее предсказуемом месте — в Сибири. Она охватила, прежде всего, Новосибирск, Омск и Тюмень, где создалось неформальное сообщество панк-музыкантов, существующее по принципу DIY («сделай сам»), хотя его участники тогда мало знали об этой идеологии. К сожалению, сибирский панк-рок 1980-х, несмотря на присутствие в нем таких ярких личностей, как Егор Летов («Гражданская оборона») или Яна Дягилева, так и остался андеграундным феноменом, широкой публике практически неизвестным.
Сэмпл: http://sendfile.su/1071128
качество: WEBRip
формат: AVI
Видео: XviD, MPEG-4, 640x344, 1.85:1, 727 kbps, 25.000
Аудио: MPEG Audio, MP3, 44.1 kHz, 128 kbps, 2ch stereo

MediaInfo

Общее
Полное имя : C:\Documents and Settings\Admin\Рабочий стол\Следы на снегу 1.84.avi
Формат : AVI
Формат/Информация : Audio Video Interleave
Размер файла : 407 Мбайт
Продолжительность : 1 ч. 5 м.
Общий поток : 864 Кбит/сек
Программа кодирования : VirtualDubMod 1.5.10.3 | www.virtualdub-fr.org || (build 2550/release)
Библиотека кодирования : VirtualDubMod build 2550/release
Видео
Идентификатор : 0
Формат : MPEG-4 Visual
Профиль формата : Advanced Simple@L5
Параметр BVOP формата : 1
Параметр QPel формата : Нет
Параметр GMC формата : Без точки перехода
Параметр матрицы формата : Default (MPEG)
Идентификатор кодека : XVID
Идентификатор кодека/Подсказка : XviD
Продолжительность : 1 ч. 5 м.
Битрейт : 727 Кбит/сек
Ширина : 640 пикселей
Высота : 344 пикселя
Соотношение сторон : 1,85:1
Частота кадров : 25,000 кадров/сек
Цветовое пространство : YUV
Субдискретизация насыщенности : 4:2:0
Битовая глубина : 8 бит
Тип развёртки : Прогрессивная
Метод сжатия : С потерями
Бит/(Пиксели*Кадры) : 0.132
Размер потока : 342 Мбайт (84%)
Библиотека кодирования : XviD 73
Аудио
Идентификатор : 1
Формат : MPEG Audio
Версия формата : Version 1
Профиль формата : Layer 3
Идентификатор кодека : 55
Идентификатор кодека/Подсказка : MP3
Продолжительность : 1 ч. 5 м.
Вид битрейта : Постоянный
Битрейт : 128 Кбит/сек
Каналы : 2 канала
Частота : 44,1 КГц
Метод сжатия : С потерями
Размер потока : 60,3 Мбайт (15%)
Выравнивание : Разделение по промежуткам
Продолжительность промежутка : 40 мс. (1,00 видеокадр)
Время предзагрузки промежутка : 500 мс.
Библиотека кодирования : LAME3.99r
Настройки программы : -m s -V 4 -q 2 -lowpass 17 -b 128

Скриншоты




[teatrix.ru].t20054.torrent 
Торрент: Зарегистрирован [ 2016-03-19 00:51 ] · 9111D6CA4CE94D690276A52A80B4E002E4481FB2

Скачать .torrent

Скачать

16 KB

Статус: проверено
Скачан: 0 раз
Размер: 407 MB
terms.php



Быстрый ответ

Имя:

      
Для отправки сообщений необходимо включить JavaScript
Показать сообщения:    

Текущее время: 20-Янв 16:57

Часовой пояс: UTC + 3


Вы можете начинать темы
Вы можете отвечать на сообщения
Вы не можете редактировать свои сообщения
Вы не можете удалять свои сообщения
Вы не можете голосовать в опросах
Вы не можете прикреплять файлы к сообщениям
Вы можете скачивать файлы