Реквием по Радамесу (Роман Виктюк) [2012, Комедия, DVB] Театр Сатиры


 

[Цитировать]

Реквием по Радамесу
Название театра: Театр Сатиры
Жанр: Комедия
Год выпуска: 2012
Продолжительность: 02:01:01
Режиссёр: Роман Виктюк
В ролях: Вера Васильева, Ольга Аросева, Елена Образцова, Сергей Колповский
Описание: Две оперные дивы, живущие в доме престарелых, продолжают соперничать, вспоминая былой успех. Обе уверены в том, что и сегодня способны восхищать публику. Хотя сегодня их публика - единственная поклонница и меломанка, обитательница того же пансиона. Молодой сыщик пытается разгадать тайну загадочной гибели знаменитого тенора, произошедшей 25 лет назад. В ходе своего расследования он узнает, что всех трех женщин связывали с исполнителем роли Радамеса непростые отношения.
Доп. информация:
Запись потока *.ts со спутника ABS-2, 75° в.д., ремукс в *.mkv программой VideoReDo.
Качество видео: DVB
Формат видео: MKV
Видео: Advanced Video Codec, 720(768)x576 (4:3), 25,000 кадров/сек, 3087 Кбит/сек
Аудио: MPEG Audio, 48,0 КГц, 2 канала, 192 Кбит/сек
Семпл: здесь

MediaInfo

Общее
Уникальный идентификатор : 168091612359308670501792449584075582781 (0x7E754457C5EF0604D1B0988402AF2D3D)
Полное имя : D:\Torrent\РЕКВИЕМ ПО РАДАМЕСУ (Kultura 56).mkv
Формат : Matroska
Версия формата : Version 2
Размер файла : 2,83 Гбайт
Продолжительность : 2 ч. 1 м.
Общий поток : 3346 Кбит/сек
Программа кодирования : Lavf53.31.100
Библиотека кодирования : Lavf53.31.100
Видео
Идентификатор : 1
Формат : AVC
Формат/Информация : Advanced Video Codec
Профиль формата : High@L3.0
Параметр CABAC формата : Да
Параметр ReFrames формата : 4 кадра
Параметр GOP формата : M=4, N=32
Идентификатор кодека : V_MPEG4/ISO/AVC
Продолжительность : 2 ч. 1 м.
Битрейт : 3087 Кбит/сек
Ширина : 720 пикселей
Высота : 576 пикселей
Соотношение сторон : 4:3
Соотношение сторон в оригинале : 4:3
Режим частоты кадров : Постоянный
Частота кадров : 25,000 кадров/сек
Стандарт вещания : PAL
Цветовое пространство : YUV
Субдискретизация насыщенности : 4:2:0
Битовая глубина : 8 бит
Тип развёртки : MBAFF
Бит/(Пиксели*Кадры) : 0.298
Размер потока : 2,61 Гбайт (92%)
Default : Да
Forced : Нет
Аудио
Идентификатор : 2
Формат : MPEG Audio
Версия формата : Version 1
Профиль формата : Layer 2
Режим : Joint stereo
Расширение режима : Intensity Stereo + MS Stereo
Идентификатор кодека : A_MPEG/L2
Идентификатор кодека/Подсказка : MP2
Продолжительность : 2 ч. 1 м.
Вид битрейта : Постоянный
Битрейт : 192 Кбит/сек
Каналы : 2 канала
Частота : 48,0 КГц
Метод сжатия : С потерями
Размер потока : 166 Мбайт (6%)
Язык : English
Default : Да
Forced : Нет

Скриншот с названием постановки




Показать сообщения:    

Текущее время: 04-Дек 06:52

Часовой пояс: UTC + 3


Вы не можете начинать темы
Вы не можете отвечать на сообщения
Вы не можете редактировать свои сообщения
Вы не можете удалять свои сообщения
Вы не можете голосовать в опросах
Вы не можете прикреплять файлы к сообщениям
Вы не можете скачивать файлы