Лунный рок / Moon rock (Джордж Даннинг / George Dunning) [1970, Великобритания, авторская анимация, абсурдный юмор, VHSRip]


 

[Цитировать]

Лунный рок / Moon rock
Страна: Великобритания
Жанр: авторская анимация, абсурдный юмор
Год выпуска: 1970
Продолжительность: 00:10:21
Перевод: не требуется
Cубтитры: нет
Режиссёр: Джордж Даннинг / George Dunning
Описание: Прибывший на Луну астронавт пытается вступить в контакт с местными жителями, но они живут по иной логике...
Психоделический мультфильм от режиссёра "Yellow Submarine".
Качество видео: VHSRip
Формат видео: AVI
Видео: 854 kbps, 576х432 (4:3), 25.000 fps, MPEG-4 Visual (XviD)
Аудио: 128 kbps, 44.1 kHz, 2 channels, MPEG Audio (MP3)

MediaInfo

General
Complete name : Moon Rock (1970).avi
Format : AVI
Format/Info : Audio Video Interleave
File size : 73.7 MiB
Duration : 10mn 21s
Overall bit rate : 994 Kbps
Writing application : Lavf55.33.100
Video
ID : 0
Format : MPEG-4 Visual
Format profile : Advanced Simple@L4
Format settings, BVOP : No
Format settings, QPel : No
Format settings, GMC : No warppoints
Format settings, Matrix : Default (H.263)
Codec ID : XVID
Codec ID/Hint : XviD
Duration : 10mn 21s
Bit rate : 854 Kbps
Width : 576 pixels
Height : 432 pixels
Display aspect ratio : 4:3
Frame rate : 25.000 fps
Color space : YUV
Chroma subsampling : 4:2:0
Bit depth : 8 bits
Scan type : Progressive
Compression mode : Lossy
Bits/(Pixel*Frame) : 0.137
Stream size : 63.3 MiB (86%)
Writing library : XviD 64
Audio
ID : 1
Format : MPEG Audio
Format version : Version 1
Format profile : Layer 3
Mode : Joint stereo
Mode extension : MS Stereo
Codec ID : 55
Codec ID/Hint : MP3
Duration : 10mn 21s
Bit rate mode : Constant
Bit rate : 128 Kbps
Channel(s) : 2 channels
Sampling rate : 44.1 KHz
Compression mode : Lossy
Stream size : 9.48 MiB (13%)
Alignment : Aligned on interleaves
Interleave, duration : 26 ms (0.65 video frame)
Interleave, preload duration : 26 ms
Writing library : LAME3.99.5

Скриншот c названием фильма

Скриншоты




Показать сообщения:    

Текущее время: 08-Дек 12:56

Часовой пояс: UTC + 3


Вы не можете начинать темы
Вы не можете отвечать на сообщения
Вы не можете редактировать свои сообщения
Вы не можете удалять свои сообщения
Вы не можете голосовать в опросах
Вы не можете прикреплять файлы к сообщениям
Вы не можете скачивать файлы