Два веронца (Владимир Геллер) [1971, комедия, телеспектакль, TVRip]


 

[Цитировать]

Два веронца
Телеспектакль
Жанр: комедия
Год выпуска: 1971
Продолжительность: 01:34:36
Режиссёр: Владимир Геллер
В ролях:
Валентин - Олег Даль
Протей - Юрий Каморный
Джулия - Галина Никулина
Сильвия - Валентина Егоренкова
Спид - Виктор Ильичев
Ланс - Ефим Каменецкий
Герцог - Алексей Розанов
Турио - Виктор Грозовский
Антонио - Евгений Горюнов
Хозяин гостиницы - Михаил Данилов
Помощник режиссера - Георгий Штиль
В эпизодах артисты Ленинградских театров
Описание: Телеспектакль создан по мотивам одноименной пьесы Уильяма Шекспира.
Релиз:
Семпл: https://www.mediafire.com/?0biw8kxvl71f8zb
Качество видео: TVRip
Формат видео: AVI
Видео: 640x480 (1.33:1), 25 fps, XviD MPEG-4 ~1512 kbps avg, 0.20 bit/pixel
Аудио: 44.100 kHz, MPEG Layer 3, 2 ch, ~128.00 kbps avg

MediaInfo

Полное имя : Dva.veronca.1971.TVRip.fenixclub.avi
Формат : AVI
Формат/Информация : Audio Video Interleave
Размер файла : 1,09 Гбайт
Продолжительность : 1 ч. 34 м.
Общий поток : 1651 Кбит/сек
Программа кодирования : VirtualDubModRus 1.5.10.2 (build 2542/release)
Библиотека кодирования : VirtualDubMod build 2542/release
Видео
Идентификатор : 0
Формат : MPEG-4 Visual
Профиль формата : Advanced Simple@L5
Параметр BVOP формата : 2
Параметр QPel формата : Нет
Параметр GMC формата : Без точки перехода
Параметр матрицы формата : Default (H.263)
Режим смешивания : Сжатый битовый поток
Идентификатор кодека : XVID
Идентификатор кодека/Подсказка : XviD
Продолжительность : 1 ч. 34 м.
Битрейт : 1513 Кбит/сек
Ширина : 640 пикселей
Высота : 480 пикселей
Соотношение сторон : 4:3
Частота кадров : 25,000 кадров/сек
Цветовое пространство : YUV
Субдискретизация насыщенности : 4:2:0
Битовая глубина : 8 бит
Тип развёртки : Прогрессивная
Метод сжатия : С потерями
Бит/(Пиксели*Кадры) : 0.197
Размер потока : 1024 Мбайт (92%)
Библиотека кодирования : XviD 1.2.1 (UTC 2008-12-04)
Аудио
Идентификатор : 1
Формат : MPEG Audio
Версия формата : Version 1
Профиль формата : Layer 3
Режим : Joint stereo
Расширение режима : MS Stereo
Идентификатор кодека : 55
Идентификатор кодека/Подсказка : MP3
Продолжительность : 1 ч. 34 м.
Вид битрейта : Постоянный
Битрейт : 128 Кбит/сек
Каналы : 2 канала
Частота : 44,1 КГц
Метод сжатия : С потерями
Размер потока : 86,6 Мбайт (8%)
Выравнивание : Разделение по промежуткам
Продолжительность промежутка : 40 мс. (1,00 видеокадр)
Время предзагрузки промежутка : 500 мс.
Библиотека кодирования : LAME3.98 (beta)ЄЄЄЄЄ

Скриншот с названием постановки

Скриншоты





Показать сообщения:    

Текущее время: 03-Дек 14:39

Часовой пояс: UTC + 3


Вы не можете начинать темы
Вы не можете отвечать на сообщения
Вы не можете редактировать свои сообщения
Вы не можете удалять свои сообщения
Вы не можете голосовать в опросах
Вы не можете прикреплять файлы к сообщениям
Вы не можете скачивать файлы