Лучшее из Верди - Арии (Альварес, Антоненко, Бранкини, ди Кастри, Костелло, Демуро, Десси, Фраккаро) / Best of Verdi - Arias (Alvarez, Antonenko, Branchini, di Castri, Costello, Demuro, Dessi, Fraccaro) [2014, Opera, Blu-ray 1080i]


 

[Цитировать]

Лучшее из Верди - Арии / Best of Verdi - Arias
Год выпуска: 2014
Лейбл: C MAJOR, Unitel Classica
Страна-производитель: США
Жанр: Opera
Продолжительность: 01:52:21
Язык: Итальянский
Субтитры: Английские, французские, немецкие, итальянские, испанские, китайские, корейские, японские
Дирижеры: Antonino Fogliani (Антонино Фольяни), Gianluigi Gelmetti (Джанлуиджи Джельметти), Riccardo Muti (Риккардо Мути), Yuri Temirkanov (Юрий Темирканов), Fabrizio Ventura (Фабрицио Вентура), Massimo Zanetti (Массимо Дзанетти)
Исполнители: Marcelo Alvarez (Марсело Альвареса), Aleksandrs Antonenko (Александр Антоненко), Susanna Branchini (Сузанна Бранкини), Barbara di Castri (Барбара ди Кастри), Stephen Costello (Стивен Костелло), Francesco Demuro (Франческо Демуро), Daniela Dessi (Даниэла Десси), Walter Fraccaro (Вальтер Фраккаро), Massimo Giordano (Массимо Джордано), Aquiles Machado (Акилес Мачадо), Nino Machaidze (Нино Мачаидзе), Mario Malagnini (Марио Маланьини), Francesco Meli (Франческо Мели), Mzia Nioradze (Мзии Ниорадзе), Marina Poplavskaya (Марина Поплавская), Alla Pozniak (Алла Позняк), Simone del Savio (Симона Дель Савио), Vladimir Stoyanov (Владимир Стоянов), Dimitra Theodossiou (Димитра Теодоссиу), Svetla Vassileva (Светла Василева)
Orchestra Regionale dell'Emilia-Romagna (оркестр Региональной Энотекой Эмилии-Романьи), Parma Teatro Regio Orchestra (оркестр Королевского оперного театра Пармы), Salzburg Mozarteum Orchestra (Зальцбургий оркестр "Mozarteum"), Vienna Philharmonic Orchestra (Венский филармонический оркестр)
Треклист:
01. La traviata - È strano! è strano!...Ah! fors è lui
02. La traviata - Sempre libera
03. La traviata - De' miei bollenti spiriti
04. La traviata - Di Provenza il mar
05. Rigoletto - Questa o quella
06. Rigoletto - Caro nome
07. Rigoletto - La donna è mobile
08. Don Carlo - Io la vidi e al suo sorriso
09. Don Carlo - O don fatale
10. Aida - Celeste Aida
11. Aida - Numi, pieta del mio soffrir!
12. Il Trovatore - Stride la vampa
13. Il Trovatore - Ah sì ben mio
14. Il Trovatore - Di quella pira
15. I Vespri Siciliani - Mercè, dilette amiche "Bolero"
16. Un ballo in maschera - Ma se m'è forza perderti
17. La forza del Destino - Pace, pace mio Dio!
18. La Forza del Destino - O tu che in seno agli angeli
19. Otello - Mia madre aveva... Piangea cantando... Ave Maria
20. Otello - Niun mi tema
Описание: В диск включены лучшие арии из опер Джузеппе Верди "Травиата", "Риголетто", "Дон Карлос", "Аида", "Трубадур", "Сицилийская вечерня", "Бал-маскарад", "Сила судьбы" и "Отелло" в исполнении звезд мировой оперной сцены.

Оригинальное описание

Die schönsten Arien von Giuseppe Verdi aus den folgenden Opern: La Traviata, Rigoletto, Don Carlo, Aida, Luisa Miller, Il Trovatore, Sizilianische Vesper, Ein Maskenball, Die Macht des Schicksals, Otello.
Great Singers: Nino Machaidze, Leo Nucci, Daniela Dessì, Marcelo Álvarez, Francesco Meli, Dimitra Theodossiou, Giacomo Prestia and more.
A beautiful visual festival of great stagings, costumes and settings (staged by Pier Luigi Pizzi, Stephen Medcalf, etc).
Бонус: Анонсы дисков
Качество видео: Blu-ray
Формат/Контейнер: BDMV
Видео кодек: MPEG4
Аудио кодек: LPCM, DTS
Видео поток: MPEG-4 Video, 1920x1080, 17958 kbps, 29.970 fps
Аудио поток: LPCM, 2304 kbps, 48 kHz, 2 ch. DTS-HD MA, 3445 kbps, 48 kHz, 6 ch

BD-Info

DISC INFO:
Disc Title: Best of Verdi - Arias (2014) (Blu-ray 1080i, AVC, DTS-HD 5.1)
Disc Size: 22,774,985,576 bytes
Protection: AACS
BD-Java: No
BDInfo: 0.5.8
PLAYLIST REPORT:
Name: 00003.MPLS
Length: 1:52:21.067 (h:m:s.ms)
Size: 21,233,934,336 bytes
Total Bitrate: 25.20 Mbps
VIDEO:
Codec Bitrate Description
----- ------- -----------
MPEG-4 AVC Video 17958 kbps 1080i / 29.970 fps / 16:9 / High Profile 4.1
AUDIO:
Codec Language Bitrate Description
----- -------- ------- -----------
LPCM Audio Italian 2304 kbps 2.0 / 48 kHz / 2304 kbps / 24-bit
DTS-HD Master Audio Italian 3445 kbps 5.1 / 48 kHz / 3445 kbps / 24-bit (DTS Core: 5.1 / 48 kHz / 1509 kbps / 24-bit)
SUBTITLES:
Codec Language Bitrate Description
----- -------- ------- -----------
Presentation Graphics Italian 10.550 kbps
Presentation Graphics English 11.797 kbps
Presentation Graphics German 13.415 kbps
Presentation Graphics French 11.943 kbps
Presentation Graphics Spanish 11.776 kbps
Presentation Graphics Chinese 9.578 kbps
Presentation Graphics Korean 10.251 kbps
Presentation Graphics Japanese 9.828 kbps
FILES:
Name Time In Length Size Total Bitrate
---- ------- ------ ---- -------------
00007.M2TS 0:00:00.000 1:52:02.982 21,224,288,256 25,256
00006.M2TS 1:52:02.982 0:00:09.042 4,823,040 4,267
00001.M2TS 1:52:12.025 0:00:09.042 4,823,040 4,267
Семпл

Скриншоты


Скриншоты доп. материалов





Показать сообщения:    

Текущее время: 09-Дек 12:41

Часовой пояс: UTC + 3


Вы не можете начинать темы
Вы не можете отвечать на сообщения
Вы не можете редактировать свои сообщения
Вы не можете удалять свои сообщения
Вы не можете голосовать в опросах
Вы не можете прикреплять файлы к сообщениям
Вы не можете скачивать файлы