(Opera) Janacek - Jenufa (Mattila, Silja, Silvasti, Hadley, Randova - Royal Opera House Covent Garden Chorus & Orchestra, Haitink) - 2002, APE (image+.cue) lossless


 

[Цитировать]

Leos Janáček - Jenufa
Жанр: Opera
Страна-производитель диска: Germany
Год издания диска: 2002
Издатель (лейбл): Erato
Номер по каталогу: 0927-45330-2
Дата записи: 2001
Аудиокодек: APE
Тип рипа: image+.cue
Битрейт аудио: lossless
Продолжительность: 69'19+58'39
Источник: собственный рип
Наличие сканов в содержимом раздачи: да
Треклист:

CD1

1. Act 1. Prelude
2. Act 1. Uz se vecer chýlí
3. Act 1. Co to robis mládku?
4. Act 1. Co ty, Jenufo
5. Act 1. Dusa, moja, Stevo, Stevusko!
6. Act 1. A tak bychom sli celým zivotem
7. Act 1. Stevo, Stevo, já vim
8. Act 1. Jak rázem vsecko to Stevkovo vypínání schlíplo
9. Act 2. Prelude
10. Act 2. Nechám jeste dvere otevreny
11. Act 2. Ba, ta tvoje okenicka
12. Act 2. Tetko Kostelnicko
13. Act 2. Ale videl jsem vcházet sohaje

CD2

1. Act 2. Co chvíla...co chvíla
2. Act 2. Mamicko, mám tezkou hlavu
3. Act 2. Kde to jsem?
4. Act 2. Tot' zrovna jde!
5. Act 3. Prelude
6. Act 3. Není ti teskno, Jenufko?
7. Act 3. Vidís, Laco, já to tusila
8. Act 3. A hen...uz jsou tu!
9. Act 3. To bylo nakého
10. Act 3. Stevo, to je ti strasné
11. Act 3. To muj skutek
12. Act 3. Vstante, pestounko moja!
13. Act 3. Odesli, Jdi také!
Исполнители:
Leos Janáček - Jenufa
Brno version 1908
Opera in 3 Acts from Moravian peasent life by Gabriela Preissová
Karita Mattila (Soprano)
Rebecca Nash (Mezzo Soprano)
Anja Silja (Mezzo Soprano),
Leah-Marian Jones (Mezzo Soprano)
Jorma Silvasti (Tenor)
Eva Randová (Alto),
Elizabeth Sikora (Soprano)
Jeremy White (Bass)
Carol Wilson (Soprano),
Jerry Hadley (Tenor)
Jonathan Veira (Baritone)
Jonathan Fisher (Baritone),
Jennifer Higgins (Mezzo Soprano)
Eryl Royle (Soprano)
Gail Pearson (Soprano)
Royal Opera House Covent Garden Chorus
Royal Opera House Covent Garden Orchestra,
Bernard Haitink

Лог создания рипа

CD1

Exact Audio Copy V1.0 beta 3 from 29. August 2011
EAC extraction logfile from 2. January 2015, 18:31
Janacek / Jenufa, Haitink CD1
Used drive : TS8XDVDSTRANSCEND Adapter: 1 ID: 1
Read mode : Secure
Utilize accurate stream : Yes
Defeat audio cache : Yes
Make use of C2 pointers : No
Read offset correction : 6
Overread into Lead-In and Lead-Out : No
Fill up missing offset samples with silence : Yes
Delete leading and trailing silent blocks : No
Null samples used in CRC calculations : Yes
Used interface : Native Win32 interface for Win NT & 2000
Used output format : Monkey's Audio Lossless Encoder
Selected bitrate : High Lossless Compression
Quality : High
Add ID3 tag : Yes
Command line compressor : C:\Program Files (x86)\Exact Audio Copy\MAC\MAC.exe
TOC of the extracted CD
Track | Start | Length | Start sector | End sector
---------------------------------------------------------
1 | 0:00.00 | 1:54.37 | 0 | 8586
2 | 1:54.37 | 10:47.56 | 8587 | 57167
3 | 12:42.18 | 5:13.74 | 57168 | 80716
4 | 17:56.17 | 2:30.30 | 80717 | 91996
5 | 20:26.47 | 4:28.13 | 91997 | 112109
6 | 24:54.60 | 9:13.01 | 112110 | 153585
7 | 34:07.61 | 6:02.29 | 153586 | 180764
8 | 40:10.15 | 5:07.05 | 180765 | 203794
9 | 45:17.20 | 1:14.01 | 203795 | 209345
10 | 46:31.21 | 7:34.73 | 209346 | 243468
11 | 54:06.19 | 2:12.30 | 243469 | 253398
12 | 56:18.49 | 9:33.34 | 253399 | 296407
13 | 65:52.08 | 3:25.08 | 296408 | 311790
Range status and errors
Selected range
Filename D:\EAC\Janacek - Jenufa, Haitink CD1.wav
Peak level 86.3 %
Extraction speed 3.3 X
Range quality 100.0 %
Test CRC 00D275A1
Copy CRC 00D275A1
Copy OK
No errors occurred
AccurateRip summary
Track 1 accurately ripped (confidence 8) [70D1727B] (AR v2)
Track 2 accurately ripped (confidence 8) [3B1B7704] (AR v2)
Track 3 accurately ripped (confidence 8) [6D7F6C09] (AR v2)
Track 4 accurately ripped (confidence 8) [548340E8] (AR v2)
Track 5 accurately ripped (confidence 8) [349CBA71] (AR v2)
Track 6 accurately ripped (confidence 8) [7DFC2C17] (AR v2)
Track 7 accurately ripped (confidence 8) [AA85B283] (AR v2)
Track 8 accurately ripped (confidence 8) [A52038FD] (AR v2)
Track 9 accurately ripped (confidence 8) [BE8A1AD2] (AR v2)
Track 10 accurately ripped (confidence 8) [E9E49275] (AR v2)
Track 11 accurately ripped (confidence 8) [65F082E9] (AR v2)
Track 12 accurately ripped (confidence 7) [38CCFEBA] (AR v2)
Track 13 accurately ripped (confidence 7) [682488C8] (AR v2)
All tracks accurately ripped
End of status report
---- CUETools DB Plugin V2.1.3
[CTDB TOCID: EYIsgHoVoqn5ROT5FbfAybj3V30-] found, Submit result: unrecognized or virtual drive
[8d671b5b] (1/5) No match
[c15c75d4] (3/5) Accurately ripped
[8ae387ae] (1/5) No match
==== Log checksum 2FFFD945A27BE35A5F9AB082B5232C6DC1564C4DBEBCCBEDE424ABFC7A0E1470 ====

CD2

Exact Audio Copy V1.0 beta 3 from 29. August 2011
EAC extraction logfile from 2. January 2015, 18:15
Janacek / Jenufa, Haitink CD2
Used drive : TSSTcorpCDDVDW SE-208AB Adapter: 1 ID: 0
Read mode : Secure
Utilize accurate stream : Yes
Defeat audio cache : Yes
Make use of C2 pointers : No
Read offset correction : 6
Overread into Lead-In and Lead-Out : No
Fill up missing offset samples with silence : Yes
Delete leading and trailing silent blocks : No
Null samples used in CRC calculations : Yes
Used interface : Native Win32 interface for Win NT & 2000
Used output format : Monkey's Audio Lossless Encoder
Selected bitrate : High Lossless Compression
Quality : High
Add ID3 tag : Yes
Command line compressor : C:\Program Files (x86)\Exact Audio Copy\MAC\MAC.exe
TOC of the extracted CD
Track | Start | Length | Start sector | End sector
---------------------------------------------------------
1 | 0:00.00 | 3:47.20 | 0 | 17044
2 | 3:47.20 | 4:57.17 | 17045 | 39336
3 | 8:44.37 | 10:15.02 | 39337 | 85463
4 | 18:59.39 | 7:25.00 | 85464 | 118838
5 | 26:24.39 | 1:46.55 | 118839 | 126843
6 | 28:11.19 | 5:08.10 | 126844 | 149953
7 | 33:19.29 | 3:40.16 | 149954 | 166469
8 | 36:59.45 | 2:46.03 | 166470 | 178922
9 | 39:45.48 | 4:59.47 | 178923 | 201394
10 | 44:45.20 | 1:53.44 | 201395 | 209913
11 | 46:38.64 | 3:09.52 | 209914 | 224140
12 | 49:48.41 | 4:22.73 | 224141 | 243863
13 | 54:11.39 | 4:26.00 | 243864 | 263813
Range status and errors
Selected range
Filename D:\EAC\Janacek - Jenufa, Haitink CD2.wav
Peak level 95.4 %
Extraction speed 4.6 X
Range quality 99.9 %
Test CRC 3F8B7CD4
Copy CRC 3F8B7CD4
Copy OK
No errors occurred
AccurateRip summary
Track 1 accurately ripped (confidence 10) [901E56AE] (AR v2)
Track 2 accurately ripped (confidence 10) [8203C78F] (AR v2)
Track 3 accurately ripped (confidence 10) [79B886C8] (AR v2)
Track 4 accurately ripped (confidence 10) [497C1960] (AR v2)
Track 5 accurately ripped (confidence 10) [43A88F26] (AR v2)
Track 6 accurately ripped (confidence 10) [97956C62] (AR v2)
Track 7 accurately ripped (confidence 10) [A55ED0FF] (AR v2)
Track 8 accurately ripped (confidence 10) [9EC94D38] (AR v2)
Track 9 accurately ripped (confidence 10) [AB1A8AA7] (AR v2)
Track 10 accurately ripped (confidence 10) [352DA133] (AR v2)
Track 11 accurately ripped (confidence 10) [2916AE45] (AR v2)
Track 12 accurately ripped (confidence 10) [F4C611E7] (AR v2)
Track 13 accurately ripped (confidence 10) [34CD1861] (AR v2)
All tracks accurately ripped
End of status report
---- CUETools DB Plugin V2.1.3
[CTDB TOCID: t3i7qQT0u3hM94MyPw7ysv.1IJA-] found, Submit result: t3i7qQT0u3hM94MyPw7ysv.1IJA- has been confirmed
[46169fd7] (16/17) Accurately ripped
[a7a09982] (01/17) No match
==== Log checksum A6B571A5EA5C4F4910A01884DCFD7C9CF057B6340AABBBE82937C72D99F340DE ====

Содержание индексной карты (.CUE)

CD1

REM GENRE Opera
REM DATE 2001
REM DISCID C0103D0D
REM COMMENT "ExactAudioCopy v1.0b3"
PERFORMER "Janacek"
TITLE "Jenufa, Haitink CD1"
FILE "Janacek - Jenufa, Haitink CD1.ape" WAVE
TRACK 01 AUDIO
TITLE "Úvod - Prelude"
PERFORMER "Janacek"
ISRC FRZ200200276
INDEX 01 00:00:00
TRACK 02 AUDIO
TITLE "Uz Se Vecer Chylí"
PERFORMER "Janacek"
ISRC FRZ200200277
INDEX 01 01:54:37
TRACK 03 AUDIO
TITLE "Co To Robis Mládku?"
PERFORMER "Janacek"
ISRC FRZ200200278
INDEX 01 12:42:18
TRACK 04 AUDIO
TITLE "Co Ty Jenufo"
PERFORMER "Janacek"
ISRC FRZ200200279
INDEX 01 17:56:17
TRACK 05 AUDIO
TITLE "Dusa Moja, Stevo, Stevusko!"
PERFORMER "Janacek"
ISRC FRZ200200280
INDEX 01 20:26:47
TRACK 06 AUDIO
TITLE "A Tak Bchom Sli Celym Zivotem"
PERFORMER "Janacek"
ISRC FRZ200200281
INDEX 01 24:54:60
TRACK 07 AUDIO
TITLE "Stevo, Stevo, Já Vím"
PERFORMER "Janacek"
ISRC FRZ200200282
INDEX 01 34:07:61
TRACK 08 AUDIO
TITLE "Jak Rázem Vsecko To Stevkovo Vypínání Schlíplo"
PERFORMER "Janacek"
ISRC FRZ200200283
INDEX 01 40:10:15
TRACK 09 AUDIO
TITLE "Úvod"
PERFORMER "Janacek"
ISRC FRZ200200284
INDEX 00 45:12:67
INDEX 01 45:17:20
TRACK 10 AUDIO
TITLE "Nechám Jeste Dvere Otevreny"
PERFORMER "Janacek"
ISRC FRZ200200285
INDEX 01 46:31:21
TRACK 11 AUDIO
TITLE "Ba, Ta Tvoje Okenicka"
PERFORMER "Janacek"
ISRC FRZ200200285
INDEX 01 54:06:19
TRACK 12 AUDIO
TITLE "Tetko Kostelnicko"
PERFORMER "Janacek"
ISRC FRZ200200287
INDEX 01 56:18:49
TRACK 13 AUDIO
TITLE "Ale Videl Jsem Vcházet Sohaje"
PERFORMER "Janacek"
ISRC FRZ200200288
INDEX 01 65:52:08

CD2

REM GENRE Opera
REM DATE 2001
REM DISCID AA0DBD0D
REM COMMENT "ExactAudioCopy v1.0b3"
CATALOG 8092745330290
PERFORMER "Janacek"
TITLE "Jenufa, Haitink CD2"
FILE "Janacek - Jenufa, Haitink CD2.ape" WAVE
TRACK 01 AUDIO
TITLE "Act II - Co chvila . . . co chvila [Kostelnicka]"
PERFORMER "Janacek"
ISRC FRZ200200289
INDEX 01 00:00:00
TRACK 02 AUDIO
TITLE "Act II - Mamicko, mam tezkou hlavu [Jenufa]"
PERFORMER "Janacek"
ISRC FRZ200200290
INDEX 00 03:44:57
INDEX 01 03:47:20
TRACK 03 AUDIO
TITLE "Act II - Kde to jsem? [Jenufa, Kostelnicka]"
PERFORMER "Janacek"
ISRC FRZ200200291
INDEX 00 08:41:63
INDEX 01 08:44:37
TRACK 04 AUDIO
TITLE "Act II - Tot zrovna jde! [Kostelnicka, Laca, Jenufa]"
PERFORMER "Janacek"
ISRC FRZ200200292
INDEX 00 18:56:65
INDEX 01 18:59:39
TRACK 05 AUDIO
TITLE "Act III - Uvod"
PERFORMER "Janacek"
ISRC FRZ200200293
INDEX 00 26:19:11
INDEX 01 26:24:39
TRACK 06 AUDIO
TITLE "Act III - Neni ti teskno, Jenufko? [Pastuchyna, Jenufa, Kostelnicka, Rychtar,..."
PERFORMER "Janacek"
ISRC FRZ200200293
INDEX 00 28:08:45
INDEX 01 28:11:19
TRACK 07 AUDIO
TITLE "Act III - Vidis, Laco, ja to tusila [Jenufa, Laca]"
PERFORMER "Janacek"
ISRC FRZ200200295
INDEX 00 33:16:55
INDEX 01 33:19:29
TRACK 08 AUDIO
TITLE "Act III - A hen . . . uz jsou tu! [Laca, Karolka, Steva, Jenufa]"
PERFORMER "Janacek"
ISRC FRZ200200296
INDEX 00 36:56:71
INDEX 01 36:59:45
TRACK 09 AUDIO
TITLE "Act III - To bylo nakeho [Rychtar, Kostelnicka, Laca, etc]"
PERFORMER "Janacek"
ISRC FRZ200200297
INDEX 00 39:42:74
INDEX 01 39:45:48
TRACK 10 AUDIO
TITLE "Act III - Stevo, to je ti strasne [Karolka, Jenufa, Steva, Laca, etc]"
PERFORMER "Janacek"
ISRC FRZ200200298
INDEX 00 44:42:46
INDEX 01 44:45:20
TRACK 11 AUDIO
TITLE "Act III - To muj suktek [Kostelnicka, Venicky lid, Jenufa, etc]"
PERFORMER "Janacek"
ISRC FRZ200200299
INDEX 00 46:36:15
INDEX 01 46:38:64
TRACK 12 AUDIO
TITLE "Act III - Vstante, pestounko moja! [Jenufa, Kostelnicka, Laca]"
PERFORMER "Janacek"
ISRC FRZ200200300
INDEX 00 49:45:67
INDEX 01 49:48:41
TRACK 13 AUDIO
TITLE "Act III - Odesli. Jde take! [Jenufa, Laca]"
PERFORMER "Janacek"
ISRC FRZ200200301
INDEX 00 54:08:65
INDEX 01 54:11:39
Доп. информация:
It says a lot for Janácek's growing presence in the operatic mainstream that Jenufa, which waited more than a decade for its "big city" premiere in Prague, and which existed for many years only in an edited and re-orchestrated version by Karel Kovarovic, now has multiple recordings using the original score -- and good ones, at that. This live recording from Covent Garden is truly wonderful, and it joins Charles Mackerras' 1982 recording of his own re-construction as a first choice for anyone interested in the work. Karita Mattila shines in the title role, exploiting every brief moment of lyricism that emerges from Janácek's speech-inflected score. Her suffering and betrayal at the hands of her family, and her eventual forgiveness of those hurts, is extremely moving. Jorma Silvasti is similarly believable as the jealous and rueful Laca. Although the bloom is gone from her voice, Anja Silja is perfectly cast as Jenufa's stepmother; her genuine shame and despair at her murder of Jenufa's child allows their final reconciliation to take on a humanity that it would not if she were played with less sympathy. Jerry Hadley is perfectly unlikable in the role of Steva -- a man so shallow that he would forsake the mother of his child over a scar on her cheek; his singing is excellent, as is his handling of the Czech language. Finally, Bernard Haitink deserves complements for leading such a tidy and well articulated performance. His balancing of orchestral colors and attention to pace make the score sound deceptively straightforward; the few moments when the orchestra overbalances the singers are an inevitable problem of live recordings, and shouldn't bother most listeners.



Показать сообщения:    

Текущее время: 04-Дек 15:18

Часовой пояс: UTC + 3


Вы не можете начинать темы
Вы не можете отвечать на сообщения
Вы не можете редактировать свои сообщения
Вы не можете удалять свои сообщения
Вы не можете голосовать в опросах
Вы не можете прикреплять файлы к сообщениям
Вы не можете скачивать файлы