(Classical) Guillaume Dufay · Complete Secular Music (The Medieval Ensemble of London, Peter & Timothy Davies) · 1997, FLAC (tracks+.cue) lossless


 

[Цитировать]

Guillaume Dufay
Complete Secular Music
Жанр: Classical
Страна-производитель диска: UK
Год издания диска: 1997
Издатель (лейбл): Decca / Editions de l’oiseau-lyre
Номер по каталогу: 452 557-2
Дата записи: март–июль 1980
Аудиокодек: FLAC
Тип рипа: tracks+.cue
Битрейт аудио: lossless
Продолжительность: 05:21:52
Источник: скачано с what.cd
Наличие сканов в содержимом раздачи: нет
Исполнители: The Medieval Ensemble of London
под управлением Питэра и Тимоти Дэвисов
Треклист:

Disc 1

01. Ce jour de l’an voudray joye mener (3:07)
02. Entre vous, gentils amoureux (3:20)
03. Resvellies vous et faites chiere lye (5:49)
04. J’ay mis mon cuer et ma pensee (1:23)
05. Navré je sui d’un dart penetratif (3:40)
06. L’alta belleza tua, virtute, valore (2:05)
07. Helas, et quant vous veray? (1:29)
08. Je donne a tous les amoureux (3:33)
09. Je veuil chanter de cuer joyeux (2:23)
10. Mon cuer me fait tous dis penser (6:05)
11. Je requier a tous amoureux (2:17)
12. Resvelons nous, resvelons, amoureux (1:16)
13. Invidia nimica (5:22)
14. Ma belle dame, je vous pri (3:37)
15. Passato è il tempo omaj di quei pensieri (4:16)
16. Pour ce que veoir je ne puis (3:09)
17. Par droit je puis bien complaindre et gemir (4:00)
18. Belle, que vous ay ie mesfait (1:53)
19. Se madame je puis veir (2:39)
20. Mon chier amy, qu’aves vous empensé (6:15)

Лог создания рипа

Exact Audio Copy V1.0 beta 1 from 15. November 2010
EAC extraction logfile from 18. July 2011, 12:04
Guillaume Dufay / Complete Secular Music - Disc 1
Used drive : TSSTcorpCD/DVDW SH-S182D Adapter: 1 ID: 0
Read mode : Secure
Utilize accurate stream : Yes
Defeat audio cache : Yes
Make use of C2 pointers : No
Read offset correction : 6
Overread into Lead-In and Lead-Out : No
Fill up missing offset samples with silence : Yes
Delete leading and trailing silent blocks : No
Null samples used in CRC calculations : Yes
Used interface : Native Win32 interface for Win NT & 2000
Gap handling : Appended to previous track
Used output format : User Defined Encoder
Selected bitrate : 128 kBit/s
Quality : High
Add ID3 tag : No
Command line compressor : C:\Program Files\Exact Audio Copy\Flac\flac.exe
Additional command line options : -V -8 -T "artist=%a" -T "title=%t" -T "album=%g" -T "date=%y" -T "tracknumber=%n" -T "genre=%m" %s
TOC of the extracted CD
Track | Start | Length | Start sector | End sector
---------------------------------------------------------
1 | 0:00.32 | 3:06.45 | 32 | 14026
2 | 3:07.02 | 3:19.38 | 14027 | 28989
3 | 6:26.40 | 5:49.12 | 28990 | 55176
4 | 12:15.52 | 1:22.55 | 55177 | 61381
5 | 13:38.32 | 3:39.58 | 61382 | 77864
6 | 17:18.15 | 2:05.05 | 77865 | 87244
7 | 19:23.20 | 1:28.40 | 87245 | 93884
8 | 20:51.60 | 3:33.35 | 93885 | 109894
9 | 24:25.20 | 2:22.52 | 109895 | 120596
10 | 26:47.72 | 6:04.65 | 120597 | 147961
11 | 32:52.62 | 2:17.30 | 147962 | 158266
12 | 35:10.17 | 1:15.65 | 158267 | 163956
13 | 36:26.07 | 5:22.10 | 163957 | 188116
14 | 41:48.17 | 3:36.60 | 188117 | 204376
15 | 45:25.02 | 4:15.63 | 204377 | 223564
16 | 49:40.65 | 3:09.27 | 223565 | 237766
17 | 52:50.17 | 4:00.23 | 237767 | 255789
18 | 56:50.40 | 1:53.37 | 255790 | 264301
19 | 58:44.02 | 2:38.38 | 264302 | 276189
20 | 61:22.40 | 6:15.17 | 276190 | 304331
Track 1
Filename D:\EAC Rips\Guillaume Dufay - 1997 - Complete Secular Music - Disc 1\01 - Ce jour de l'an voudray joye mener.wav
Pre-gap length 0:00:02.42
Peak level 55.8 %
Extraction speed 3.0 X
Track quality 99.8 %
Test CRC 5BBDED75
Copy CRC 5BBDED75
Accurately ripped (confidence 4) [09A63BD9]
Copy OK
Track 2
Filename D:\EAC Rips\Guillaume Dufay - 1997 - Complete Secular Music - Disc 1\02 - Entre vous, gentils amoureux.wav
Pre-gap length 0:00:03.66
Peak level 98.9 %
Extraction speed 5.0 X
Track quality 100.0 %
Test CRC 9C9419F2
Copy CRC 9C9419F2
Accurately ripped (confidence 3) [7E662E6C]
Copy OK
Track 3
Filename D:\EAC Rips\Guillaume Dufay - 1997 - Complete Secular Music - Disc 1\03 - Resvellies vous et faites chiere lye.wav
Pre-gap length 0:00:04.00
Peak level 74.6 %
Extraction speed 5.9 X
Track quality 100.0 %
Test CRC 06948242
Copy CRC 06948242
Accurately ripped (confidence 4) [C61B8DEF]
Copy OK
Track 4
Filename D:\EAC Rips\Guillaume Dufay - 1997 - Complete Secular Music - Disc 1\04 - J'ay mis mon cuer et ma pens e.wav
Pre-gap length 0:00:04.36
Peak level 38.1 %
Extraction speed 4.7 X
Track quality 100.0 %
Test CRC 1C703753
Copy CRC 1C703753
Accurately ripped (confidence 4) [0ADC7477]
Copy OK
Track 5
Filename D:\EAC Rips\Guillaume Dufay - 1997 - Complete Secular Music - Disc 1\05 - Navr je sui d'un dart penetratif.wav
Pre-gap length 0:00:04.00
Peak level 53.9 %
Extraction speed 6.1 X
Track quality 100.0 %
Test CRC 42F95BF2
Copy CRC 42F95BF2
Accurately ripped (confidence 4) [5C74D290]
Copy OK
Track 6
Filename D:\EAC Rips\Guillaume Dufay - 1997 - Complete Secular Music - Disc 1\06 - L'alta belleza tua, virtute, valore.wav
Pre-gap length 0:00:04.17
Peak level 57.3 %
Extraction speed 5.7 X
Track quality 100.0 %
Test CRC 869C6379
Copy CRC 869C6379
Accurately ripped (confidence 4) [0BEC65CE]
Copy OK
Track 7
Filename D:\EAC Rips\Guillaume Dufay - 1997 - Complete Secular Music - Disc 1\07 - helas, et quant vous veray.wav
Pre-gap length 0:00:03.90
Peak level 9.1 %
Extraction speed 5.3 X
Track quality 100.0 %
Test CRC DEEF0EC7
Copy CRC DEEF0EC7
Accurately ripped (confidence 4) [28DC8562]
Copy OK
Track 8
Filename D:\EAC Rips\Guillaume Dufay - 1997 - Complete Secular Music - Disc 1\08 - Je donne a tous les amoureux.wav
Pre-gap length 0:00:04.73
Peak level 85.1 %
Extraction speed 6.6 X
Track quality 100.0 %
Test CRC 288251A1
Copy CRC 288251A1
Accurately ripped (confidence 4) [7596D249]
Copy OK
Track 9
Filename D:\EAC Rips\Guillaume Dufay - 1997 - Complete Secular Music - Disc 1\09 - je veuil chanter de cuer joyeux.wav
Pre-gap length 0:00:04.04
Peak level 42.9 %
Extraction speed 6.3 X
Track quality 100.0 %
Test CRC 34ED8CE8
Copy CRC 34ED8CE8
Accurately ripped (confidence 4) [F5E59DD6]
Copy OK
Track 10
Filename D:\EAC Rips\Guillaume Dufay - 1997 - Complete Secular Music - Disc 1\10 - Mon cuer me fait tous dis penser.wav
Pre-gap length 0:00:03.73
Peak level 49.2 %
Extraction speed 7.6 X
Track quality 100.0 %
Test CRC 5FE9D494
Copy CRC 5FE9D494
Accurately ripped (confidence 4) [4C32498F]
Copy OK
Track 11
Filename D:\EAC Rips\Guillaume Dufay - 1997 - Complete Secular Music - Disc 1\11 - je requier a tous amoureux.wav
Pre-gap length 0:00:03.60
Peak level 79.1 %
Extraction speed 6.8 X
Track quality 100.0 %
Test CRC C49093A7
Copy CRC C49093A7
Accurately ripped (confidence 4) [9D57B675]
Copy OK
Track 12
Filename D:\EAC Rips\Guillaume Dufay - 1997 - Complete Secular Music - Disc 1\12 - Resvelons nous, resvelons, amoureux.wav
Pre-gap length 0:00:04.00
Peak level 94.4 %
Extraction speed 5.9 X
Track quality 100.0 %
Test CRC 907249D5
Copy CRC 907249D5
Accurately ripped (confidence 4) [0B47371F]
Copy OK
Track 13
Filename D:\EAC Rips\Guillaume Dufay - 1997 - Complete Secular Music - Disc 1\13 - Invidia nimica.wav
Pre-gap length 0:00:03.86
Peak level 62.2 %
Extraction speed 8.2 X
Track quality 100.0 %
Test CRC 370E9290
Copy CRC 370E9290
Accurately ripped (confidence 4) [CB3945B0]
Copy OK
Track 14
Filename D:\EAC Rips\Guillaume Dufay - 1997 - Complete Secular Music - Disc 1\14 - Ma belle dame, je vous pri.wav
Pre-gap length 0:00:03.89
Peak level 50.8 %
Extraction speed 7.0 X
Track quality 99.9 %
Test CRC F6E095C2
Copy CRC F6E095C2
Accurately ripped (confidence 4) [F28EDCDC]
Copy OK
Track 15
Filename D:\EAC Rips\Guillaume Dufay - 1997 - Complete Secular Music - Disc 1\15 - Passato il tempo omaj di quei pensieri.wav
Pre-gap length 0:00:03.73
Peak level 66.4 %
Extraction speed 8.5 X
Track quality 100.0 %
Test CRC A4990FA7
Copy CRC A4990FA7
Accurately ripped (confidence 4) [7452138A]
Copy OK
Track 16
Filename D:\EAC Rips\Guillaume Dufay - 1997 - Complete Secular Music - Disc 1\16 - Pour ce que veoir je ne puis.wav
Pre-gap length 0:00:04.53
Peak level 79.5 %
Extraction speed 8.3 X
Track quality 100.0 %
Test CRC 18EA52E6
Copy CRC 18EA52E6
Accurately ripped (confidence 4) [CBFFBB56]
Copy OK
Track 17
Filename D:\EAC Rips\Guillaume Dufay - 1997 - Complete Secular Music - Disc 1\17 - Par droit je puis bien complaindre et gemir.wav
Pre-gap length 0:00:03.40
Peak level 53.6 %
Extraction speed 8.8 X
Track quality 100.0 %
Test CRC 99BB8CDE
Copy CRC 99BB8CDE
Accurately ripped (confidence 3) [915B1697]
Copy OK
Track 18
Filename D:\EAC Rips\Guillaume Dufay - 1997 - Complete Secular Music - Disc 1\18 - Belle, que vous ay ie mesfait.wav
Pre-gap length 0:00:04.00
Peak level 69.7 %
Extraction speed 7.6 X
Track quality 100.0 %
Test CRC 6C2D2251
Copy CRC 6C2D2251
Accurately ripped (confidence 4) [BC85F9A1]
Copy OK
Track 19
Filename D:\EAC Rips\Guillaume Dufay - 1997 - Complete Secular Music - Disc 1\19 - Se madame je puis veir.wav
Pre-gap length 0:00:03.49
Peak level 65.3 %
Extraction speed 8.5 X
Track quality 100.0 %
Test CRC 0CECF060
Copy CRC 0CECF060
Accurately ripped (confidence 4) [8ED7CF82]
Copy OK
Track 20
Filename D:\EAC Rips\Guillaume Dufay - 1997 - Complete Secular Music - Disc 1\20 - Mon chier amy, qu'aves vous empens.wav
Pre-gap length 0:00:03.86
Peak level 42.6 %
Extraction speed 9.0 X
Track quality 99.9 %
Test CRC 3B58AFC2
Copy CRC 3B58AFC2
Accurately ripped (confidence 4) [355C5359]
Copy OK
All tracks accurately ripped
No errors occurred
End of status report
==== Log checksum A92D151110B6A945D295F6C4A45FA75F3A511AC419C38F4017C47871522D21A2 ====

Содержание индексной карты (.CUE)

REM DATE 1997
REM DISCID 1B0FD914
REM COMMENT "ExactAudioCopy v1.0b1"
PERFORMER "The Medieval Ensemble of London"
TITLE "Complete Secular Music"
FILE "01. Ce jour de l’an voudray joye mener.wav" WAVE
TRACK 01 AUDIO
PREGAP 00:00:32
TITLE "Ce jour de l’an voudray joye mener"
PERFORMER "The Medieval Ensemble of London"
INDEX 01 00:00:00
TRACK 02 AUDIO
TITLE "Entre vous, gentils amoureux"
PERFORMER "The Medieval Ensemble of London"
INDEX 00 03:02:70
FILE "02. Entre vous, gentils amoureux.wav" WAVE
INDEX 01 00:00:00
TRACK 03 AUDIO
TITLE "Resvellies vous et faites chiere lye"
PERFORMER "The Medieval Ensemble of London"
INDEX 00 03:15:38
FILE "03. Resvellies vous et faites chiere lye.wav" WAVE
INDEX 01 00:00:00
TRACK 04 AUDIO
TITLE "J’ay mis mon cuer et ma pensee"
PERFORMER "The Medieval Ensemble of London"
INDEX 00 05:44:60
FILE "04. J’ay mis mon cuer et ma pensee.wav" WAVE
INDEX 01 00:00:00
TRACK 05 AUDIO
TITLE "Navré je sui d’un dart penetratif"
PERFORMER "The Medieval Ensemble of London"
INDEX 00 01:18:55
FILE "05. Navré je sui d’un dart penetratif.wav" WAVE
INDEX 01 00:00:00
TRACK 06 AUDIO
TITLE "L’alta belleza tua, virtute, valore"
PERFORMER "The Medieval Ensemble of London"
INDEX 00 03:35:45
FILE "06. L’alta belleza tua, virtute, valore.wav" WAVE
INDEX 01 00:00:00
TRACK 07 AUDIO
TITLE "Helas, et quant vous veray?"
PERFORMER "The Medieval Ensemble of London"
INDEX 00 02:01:12
FILE "07. Helas, et quant vous veray_.wav" WAVE
INDEX 01 00:00:00
TRACK 08 AUDIO
TITLE "Je donne a tous les amoureux"
PERFORMER "The Medieval Ensemble of London"
INDEX 00 01:23:60
FILE "08. Je donne a tous les amoureux.wav" WAVE
INDEX 01 00:00:00
TRACK 09 AUDIO
TITLE "Je veuil chanter de cuer joyeux"
PERFORMER "The Medieval Ensemble of London"
INDEX 00 03:29:32
FILE "09. Je veuil chanter de cuer joyeux.wav" WAVE
INDEX 01 00:00:00
TRACK 10 AUDIO
TITLE "Mon cuer me fait tous dis penser"
PERFORMER "The Medieval Ensemble of London"
INDEX 00 02:18:72
FILE "10. Mon cuer me fait tous dis penser.wav" WAVE
INDEX 01 00:00:00
TRACK 11 AUDIO
TITLE "Je requier a tous amoureux"
PERFORMER "The Medieval Ensemble of London"
INDEX 00 06:01:20
FILE "11. Je requier a tous amoureux.wav" WAVE
INDEX 01 00:00:00
TRACK 12 AUDIO
TITLE "Resvelons nous, resvelons, amoureux"
PERFORMER "The Medieval Ensemble of London"
INDEX 00 02:13:30
FILE "12. Resvelons nous, resvelons, amoureux.wav" WAVE
INDEX 01 00:00:00
TRACK 13 AUDIO
TITLE "Invidia nimica"
PERFORMER "The Medieval Ensemble of London"
INDEX 00 01:12:00
FILE "13. Invidia nimica.wav" WAVE
INDEX 01 00:00:00
TRACK 14 AUDIO
TITLE "Ma belle dame, je vous pri"
PERFORMER "The Medieval Ensemble of London"
INDEX 00 05:18:18
FILE "14. Ma belle dame, je vous pri.wav" WAVE
INDEX 01 00:00:00
TRACK 15 AUDIO
TITLE "Passato è il tempo omaj di quei pensieri"
PERFORMER "The Medieval Ensemble of London"
INDEX 00 03:33:05
FILE "15. Passato è il tempo omaj di quei pensieri.wav" WAVE
INDEX 01 00:00:00
TRACK 16 AUDIO
TITLE "Pour ce que veoir je ne puis"
PERFORMER "The Medieval Ensemble of London"
INDEX 00 04:11:23
FILE "16. Pour ce que veoir je ne puis.wav" WAVE
INDEX 01 00:00:00
TRACK 17 AUDIO
TITLE "Par droit je puis bien complaindre et gemir"
PERFORMER "The Medieval Ensemble of London"
INDEX 00 03:05:72
FILE "17. Par droit je puis bien complaindre et gemir.wav" WAVE
INDEX 01 00:00:00
TRACK 18 AUDIO
TITLE "Belle, que vous ay ie mesfait"
PERFORMER "The Medieval Ensemble of London"
INDEX 00 03:56:23
FILE "18. Belle, que vous ay ie mesfait.wav" WAVE
INDEX 01 00:00:00
TRACK 19 AUDIO
TITLE "Se madame je puis veir"
PERFORMER "The Medieval Ensemble of London"
INDEX 00 01:50:00
FILE "19. Se madame je puis veir.wav" WAVE
INDEX 01 00:00:00
TRACK 20 AUDIO
TITLE "Mon chier amy, qu’aves vous empensé"
PERFORMER "The Medieval Ensemble of London"
INDEX 00 02:34:48
FILE "20. Mon chier amy, qu’aves vous empensé.wav" WAVE
INDEX 01 00:00:00

Disc 2

01. Belle plaissant et gracieuse (0:58)
02. Ma belle dame souveraine (3:44)
03. Helas, ma dame, par amours (2:10)
04. J’atendray tant qu’il vous playra (1:45)
05. J’ay grant (dolour) (1:26)
06. La belle se siet au piet de la tour (1:37)
07. Ce moys de may soyons lies et joyeux (3:07)
08. Je ne suy plus tel que souloye (2:20)
09. La dolce uista (2:25)
10. Je me complains piteusement (1:57)
11. Bien veignes vous, amoureuse liesse (0:47)
12. Dona i ardenti ray (1:50)
13. Quel fronte signorille in paradiso (3:02)
14. Bon jour, bon mois, bon an et bonne estraine (1:28)
15. Estrines moy, je vous estrineray (4:07)
16. Je ne puis plus ce que y’ai peu (1:07)
17. Pour l’amour de ma doulce amye (4:02)
18. He, compaignons, resvelons nous (3:36)
19. Adieu ces bon vins de Lannoys (4:09)
20. Pour l’amour de ma doulce amye (4:04)
21. Portugaler (2:33)
22. Belle, veullies moy retenir (4:00)
23. Vergene bella, che di sol vestita (3:40)
24. Belle, vueillies vostre mercy donner (4:29)

Лог создания рипа

Exact Audio Copy V1.0 beta 1 from 15. November 2010
EAC extraction logfile from 18. July 2011, 12:59
Guillaume Dufay / Complete Secular Music - Disc 2
Used drive : TSSTcorpCD/DVDW SH-S182D Adapter: 1 ID: 0
Read mode : Secure
Utilize accurate stream : Yes
Defeat audio cache : Yes
Make use of C2 pointers : No
Read offset correction : 6
Overread into Lead-In and Lead-Out : No
Fill up missing offset samples with silence : Yes
Delete leading and trailing silent blocks : No
Null samples used in CRC calculations : Yes
Used interface : Native Win32 interface for Win NT & 2000
Gap handling : Appended to previous track
Used output format : User Defined Encoder
Selected bitrate : 128 kBit/s
Quality : High
Add ID3 tag : No
Command line compressor : C:\Program Files\Exact Audio Copy\Flac\flac.exe
Additional command line options : -V -8 -T "artist=%a" -T "title=%t" -T "album=%g" -T "date=%y" -T "tracknumber=%n" -T "genre=%m" %s
TOC of the extracted CD
Track | Start | Length | Start sector | End sector
---------------------------------------------------------
1 | 0:00.32 | 0:58.30 | 32 | 4411
2 | 0:58.62 | 3:44.05 | 4412 | 21216
3 | 4:42.67 | 2:09.63 | 21217 | 30954
4 | 6:52.55 | 1:44.45 | 30955 | 38799
5 | 8:37.25 | 1:26.12 | 38800 | 45261
6 | 10:03.37 | 1:36.63 | 45262 | 52524
7 | 11:40.25 | 3:07.20 | 52525 | 66569
8 | 14:47.45 | 2:20.37 | 66570 | 77106
9 | 17:08.07 | 2:24.70 | 77107 | 87976
10 | 19:33.02 | 1:56.53 | 87977 | 96729
11 | 21:29.55 | 0:47.15 | 96730 | 100269
12 | 22:16.70 | 1:50.17 | 100270 | 108536
13 | 24:07.12 | 3:01.68 | 108537 | 122179
14 | 27:09.05 | 1:28.00 | 122180 | 128779
15 | 28:37.05 | 4:07.07 | 128780 | 147311
16 | 32:44.12 | 1:07.25 | 147312 | 152361
17 | 33:51.37 | 4:01.60 | 152362 | 170496
18 | 37:53.22 | 3:36.10 | 170497 | 186706
19 | 41:29.32 | 4:09.23 | 186707 | 205404
20 | 45:38.55 | 4:04.07 | 205405 | 223711
21 | 49:42.62 | 2:32.48 | 223712 | 235159
22 | 52:15.35 | 4:00.27 | 235160 | 253186
23 | 56:15.62 | 3:39.45 | 253187 | 269656
24 | 59:55.32 | 4:29.35 | 269657 | 289866
Track 1
Filename D:\EAC Rips\Guillaume Dufay - 1997 - Complete Secular Music - Disc 2\01 - Belle plaissant et gracieuse.wav
Pre-gap length 0:00:02.42
Peak level 64.5 %
Extraction speed 3.1 X
Track quality 100.0 %
Test CRC 65D6C064
Copy CRC 65D6C064
Accurately ripped (confidence 4) [23F3F1DB]
Copy OK
Track 2
Filename D:\EAC Rips\Guillaume Dufay - 1997 - Complete Secular Music - Disc 2\02 - Ma belle dame souveraine.wav
Pre-gap length 0:00:04.93
Peak level 68.5 %
Extraction speed 4.8 X
Track quality 100.0 %
Test CRC DD19792C
Copy CRC DD19792C
Accurately ripped (confidence 4) [E579F742]
Copy OK
Track 3
Filename D:\EAC Rips\Guillaume Dufay - 1997 - Complete Secular Music - Disc 2\03 - Helas, ma dame, par amours.wav
Pre-gap length 0:00:04.29
Peak level 40.3 %
Extraction speed 3.8 X
Track quality 99.9 %
Test CRC 1D362958
Copy CRC 1D362958
Accurately ripped (confidence 4) [E51B3C4A]
Copy OK
Track 4
Filename D:\EAC Rips\Guillaume Dufay - 1997 - Complete Secular Music - Disc 2\04 - J'atendray tant qu'il vous playra.wav
Pre-gap length 0:00:03.77
Peak level 50.5 %
Extraction speed 3.6 X
Track quality 99.8 %
Test CRC 4B39B34A
Copy CRC 4B39B34A
Accurately ripped (confidence 4) [8B057B17]
Copy OK
Track 5
Filename D:\EAC Rips\Guillaume Dufay - 1997 - Complete Secular Music - Disc 2\05 - J'ay grant.wav
Pre-gap length 0:00:04.17
Peak level 43.7 %
Extraction speed 4.4 X
Track quality 100.0 %
Test CRC 1D0A8F02
Copy CRC 1D0A8F02
Accurately ripped (confidence 4) [4A9E0421]
Copy OK
Track 6
Filename D:\EAC Rips\Guillaume Dufay - 1997 - Complete Secular Music - Disc 2\06 - La belle se siet au piet de la tour.wav
Pre-gap length 0:00:03.89
Peak level 47.4 %
Extraction speed 4.7 X
Track quality 100.0 %
Test CRC 1E82CFA8
Copy CRC 1E82CFA8
Accurately ripped (confidence 4) [85A0FDCD]
Copy OK
Track 7
Filename D:\EAC Rips\Guillaume Dufay - 1997 - Complete Secular Music - Disc 2\07 - Ce moys de may soyons lies et joyeux.wav
Pre-gap length 0:00:03.50
Peak level 50.3 %
Extraction speed 4.9 X
Track quality 99.9 %
Test CRC 4EB501C2
Copy CRC 4EB501C2
Accurately ripped (confidence 4) [0EBEAE58]
Copy OK
Track 8
Filename D:\EAC Rips\Guillaume Dufay - 1997 - Complete Secular Music - Disc 2\08 - Je ne suy plus tel que souloye.wav
Pre-gap length 0:00:04.10
Peak level 65.6 %
Extraction speed 5.6 X
Track quality 100.0 %
Test CRC 372BFE0E
Copy CRC 372BFE0E
Accurately ripped (confidence 4) [578492D2]
Copy OK
Track 9
Filename D:\EAC Rips\Guillaume Dufay - 1997 - Complete Secular Music - Disc 2\09 - La dolce uista.wav
Pre-gap length 0:00:04.76
Peak level 47.3 %
Extraction speed 5.8 X
Track quality 100.0 %
Test CRC 74BEC219
Copy CRC 74BEC219
Accurately ripped (confidence 4) [8D189F68]
Copy OK
Track 10
Filename D:\EAC Rips\Guillaume Dufay - 1997 - Complete Secular Music - Disc 2\10 - Je me complains piteusement.wav
Pre-gap length 0:00:04.40
Peak level 53.1 %
Extraction speed 5.7 X
Track quality 100.0 %
Test CRC F3E3924D
Copy CRC F3E3924D
Accurately ripped (confidence 4) [B93B698F]
Copy OK
Track 11
Filename D:\EAC Rips\Guillaume Dufay - 1997 - Complete Secular Music - Disc 2\11 - Bien veignes vous, amoureuse liesse.wav
Pre-gap length 0:00:03.73
Peak level 18.2 %
Extraction speed 4.2 X
Track quality 100.0 %
Test CRC 2CFBE7B0
Copy CRC 2CFBE7B0
Accurately ripped (confidence 4) [6CD0294E]
Copy OK
Track 12
Filename D:\EAC Rips\Guillaume Dufay - 1997 - Complete Secular Music - Disc 2\12 - Dona i ardenti ray.wav
Pre-gap length 0:00:04.26
Peak level 96.6 %
Extraction speed 4.6 X
Track quality 99.9 %
Test CRC 193F16C4
Copy CRC 193F16C4
Accurately ripped (confidence 4) [D42C0E38]
Copy OK
Track 13
Filename D:\EAC Rips\Guillaume Dufay - 1997 - Complete Secular Music - Disc 2\13 - Quel fronte signorille in paradiso.wav
Pre-gap length 0:00:03.73
Peak level 38.1 %
Extraction speed 6.6 X
Track quality 100.0 %
Test CRC D1BBD606
Copy CRC D1BBD606
Accurately ripped (confidence 4) [8294A28F]
Copy OK
Track 14
Filename D:\EAC Rips\Guillaume Dufay - 1997 - Complete Secular Music - Disc 2\14 - Bon jour, bon mois, bon an et bonne estraine.wav
Pre-gap length 0:00:04.37
Peak level 78.7 %
Extraction speed 4.3 X
Track quality 99.8 %
Test CRC 7AA95171
Copy CRC 7AA95171
Accurately ripped (confidence 4) [6526C454]
Copy OK
Track 15
Filename D:\EAC Rips\Guillaume Dufay - 1997 - Complete Secular Music - Disc 2\15 - Estrines moy, je vous estrineray.wav
Pre-gap length 0:00:04.26
Peak level 90.0 %
Extraction speed 7.4 X
Track quality 100.0 %
Test CRC 85373116
Copy CRC 85373116
Accurately ripped (confidence 4) [340A346A]
Copy OK
Track 16
Filename D:\EAC Rips\Guillaume Dufay - 1997 - Complete Secular Music - Disc 2\16 - Je ne puis plus ce que y'ai peu.wav
Pre-gap length 0:00:03.56
Peak level 24.8 %
Extraction speed 5.5 X
Track quality 100.0 %
Test CRC 4183B89F
Copy CRC 4183B89F
Accurately ripped (confidence 4) [590B1F59]
Copy OK
Track 17
Filename D:\EAC Rips\Guillaume Dufay - 1997 - Complete Secular Music - Disc 2\17 - Pour l'amour de ma doulce amye.wav
Pre-gap length 0:00:02.69
Peak level 50.9 %
Extraction speed 7.7 X
Track quality 100.0 %
Test CRC BE1C493A
Copy CRC BE1C493A
Accurately ripped (confidence 4) [15950672]
Copy OK
Track 18
Filename D:\EAC Rips\Guillaume Dufay - 1997 - Complete Secular Music - Disc 2\18 - He, compaignons, resvelons nous.wav
Pre-gap length 0:00:02.20
Peak level 74.0 %
Extraction speed 7.8 X
Track quality 100.0 %
Test CRC F1D480BA
Copy CRC F1D480BA
Accurately ripped (confidence 4) [57FAE191]
Copy OK
Track 19
Filename D:\EAC Rips\Guillaume Dufay - 1997 - Complete Secular Music - Disc 2\19 - Adieu ces bon vins de Lannoys.wav
Pre-gap length 0:00:03.40
Peak level 80.5 %
Extraction speed 8.2 X
Track quality 100.0 %
Test CRC 19680D7F
Copy CRC 19680D7F
Accurately ripped (confidence 4) [B2A24E62]
Copy OK
Track 20
Filename D:\EAC Rips\Guillaume Dufay - 1997 - Complete Secular Music - Disc 2\20 - pour l'amour de ma doulce amye.wav
Pre-gap length 0:00:04.10
Peak level 34.9 %
Extraction speed 8.5 X
Track quality 100.0 %
Test CRC D58D2282
Copy CRC D58D2282
Accurately ripped (confidence 4) [78057ED0]
Copy OK
Track 21
Filename D:\EAC Rips\Guillaume Dufay - 1997 - Complete Secular Music - Disc 2\21 - Portugaler.wav
Pre-gap length 0:00:03.62
Peak level 13.8 %
Extraction speed 8.0 X
Track quality 100.0 %
Test CRC D20F4C7D
Copy CRC D20F4C7D
Accurately ripped (confidence 4) [DE283C9C]
Copy OK
Track 22
Filename D:\EAC Rips\Guillaume Dufay - 1997 - Complete Secular Music - Disc 2\22 - Belle, veullies moy retenir.wav
Pre-gap length 0:00:03.04
Peak level 35.7 %
Extraction speed 8.8 X
Track quality 100.0 %
Test CRC B4408894
Copy CRC B4408894
Accurately ripped (confidence 4) [315389D2]
Copy OK
Track 23
Filename D:\EAC Rips\Guillaume Dufay - 1997 - Complete Secular Music - Disc 2\23 - Vergene bella, che di sol vestita.wav
Pre-gap length 0:00:04.20
Peak level 63.7 %
Extraction speed 8.9 X
Track quality 100.0 %
Test CRC 67A921EC
Copy CRC 67A921EC
Accurately ripped (confidence 4) [8C08910B]
Copy OK
Track 24
Filename D:\EAC Rips\Guillaume Dufay - 1997 - Complete Secular Music - Disc 2\24 - Belle, vueillies vostre mercy donner.wav
Pre-gap length 0:00:03.96
Peak level 32.8 %
Extraction speed 9.4 X
Track quality 100.0 %
Test CRC 5793FDDD
Copy CRC 5793FDDD
Accurately ripped (confidence 4) [C2A13E84]
Copy OK
All tracks accurately ripped
No errors occurred
End of status report
==== Log checksum 563FF3BADDE996F8FB1376071D8454144E496D78E2EC97D3B9A2EF6E3DFE4450 ====

Содержание индексной карты (.CUE)

REM DATE 1997
REM DISCID 550F1818
REM COMMENT "ExactAudioCopy v1.0b1"
PERFORMER "The Medieval Ensemble of London"
TITLE "Complete Secular Music"
FILE "01. Belle plaissant et gracieuse.wav" WAVE
TRACK 01 AUDIO
TITLE "Belle plaissant et gracieuse"
PERFORMER "The Medieval Ensemble of London"
PREGAP 00:00:32
INDEX 01 00:00:00
TRACK 02 AUDIO
TITLE "Ma belle dame souveraine"
PERFORMER "The Medieval Ensemble of London"
INDEX 00 00:53:35
FILE "02. Ma belle dame souveraine.wav" WAVE
INDEX 01 00:00:00
TRACK 03 AUDIO
TITLE "Helas, ma dame, par amours"
PERFORMER "The Medieval Ensemble of London"
INDEX 00 03:39:58
FILE "03. Helas, ma dame, par amours.wav" WAVE
INDEX 01 00:00:00
TRACK 04 AUDIO
TITLE "J’atendray tant qu’il vous playra"
PERFORMER "The Medieval Ensemble of London"
INDEX 00 02:06:05
FILE "04. J’atendray tant qu’il vous playra.wav" WAVE
INDEX 01 00:00:00
TRACK 05 AUDIO
TITLE "J’ay grant (dolour)"
PERFORMER "The Medieval Ensemble of London"
INDEX 00 01:40:32
FILE "05. J’ay grant (dolour).wav" WAVE
INDEX 01 00:00:00
TRACK 06 AUDIO
TITLE "La belle se siet au piet de la tour"
PERFORMER "The Medieval Ensemble of London"
INDEX 00 01:22:20
FILE "06. La belle se siet au piet de la tour.wav" WAVE
INDEX 01 00:00:00
TRACK 07 AUDIO
TITLE "Ce moys de may soyons lies et joyeux"
PERFORMER "The Medieval Ensemble of London"
INDEX 00 01:33:25
FILE "07. Ce moys de may soyons lies et joyeux.wav" WAVE
INDEX 01 00:00:00
TRACK 08 AUDIO
TITLE "Je ne suy plus tel que souloye"
PERFORMER "The Medieval Ensemble of London"
INDEX 00 03:03:12
FILE "08. Je ne suy plus tel que souloye.wav" WAVE
INDEX 01 00:00:00
TRACK 09 AUDIO
TITLE "La dolce uista"
PERFORMER "The Medieval Ensemble of London"
INDEX 00 02:15:55
FILE "09. La dolce uista.wav" WAVE
INDEX 01 00:00:00
TRACK 10 AUDIO
TITLE "Je me complains piteusement"
PERFORMER "The Medieval Ensemble of London"
INDEX 00 02:20:40
FILE "10. Je me complains piteusement.wav" WAVE
INDEX 01 00:00:00
TRACK 11 AUDIO
TITLE "Bien veignes vous, amoureuse liesse"
PERFORMER "The Medieval Ensemble of London"
INDEX 00 01:52:73
FILE "11. Bien veignes vous, amoureuse liesse.wav" WAVE
INDEX 01 00:00:00
TRACK 12 AUDIO
TITLE "Dona i ardenti ray"
PERFORMER "The Medieval Ensemble of London"
INDEX 00 00:42:70
FILE "12. Dona i ardenti ray.wav" WAVE
INDEX 01 00:00:00
TRACK 13 AUDIO
TITLE "Quel fronte signorille in paradiso"
PERFORMER "The Medieval Ensemble of London"
INDEX 00 01:46:37
FILE "13. Quel fronte signorille in paradiso.wav" WAVE
INDEX 01 00:00:00
TRACK 14 AUDIO
TITLE "Bon jour, bon mois, bon an et bonne estraine"
PERFORMER "The Medieval Ensemble of London"
INDEX 00 02:57:40
FILE "14. Bon jour, bon mois, bon an et bonne estraine.wav" WAVE
INDEX 01 00:00:00
TRACK 15 AUDIO
TITLE "Estrines moy, je vous estrineray"
PERFORMER "The Medieval Ensemble of London"
INDEX 00 01:23:55
FILE "15. Estrines moy, je vous estrineray.wav" WAVE
INDEX 01 00:00:00
TRACK 16 AUDIO
TITLE "Je ne puis plus ce que y’ai peu"
PERFORMER "The Medieval Ensemble of London"
INDEX 00 04:03:40
FILE "16. Je ne puis plus ce que y’ai peu.wav" WAVE
INDEX 01 00:00:00
TRACK 17 AUDIO
TITLE "Pour l’amour de ma doulce amye"
PERFORMER "The Medieval Ensemble of London"
INDEX 00 01:04:48
FILE "17. Pour l’amour de ma doulce amye.wav" WAVE
INDEX 01 00:00:00
TRACK 18 AUDIO
TITLE "He, compaignons, resvelons nous"
PERFORMER "The Medieval Ensemble of London"
INDEX 00 03:59:45
FILE "18. He, compaignons, resvelons nous.wav" WAVE
INDEX 01 00:00:00
TRACK 19 AUDIO
TITLE "Adieu ces bon vins de Lannoys"
PERFORMER "The Medieval Ensemble of London"
INDEX 00 03:32:55
FILE "19. Adieu ces bon vins de Lannoys.wav" WAVE
INDEX 01 00:00:00
TRACK 20 AUDIO
TITLE "Pour l’amour de ma doulce amye"
PERFORMER "The Medieval Ensemble of London"
INDEX 00 04:05:15
FILE "20. Pour l’amour de ma doulce amye.wav" WAVE
INDEX 01 00:00:00
TRACK 21 AUDIO
TITLE "Portugaler"
PERFORMER "The Medieval Ensemble of London"
INDEX 00 04:00:35
FILE "21. Portugaler.wav" WAVE
INDEX 01 00:00:00
TRACK 22 AUDIO
TITLE "Belle, veullies moy retenir"
PERFORMER "The Medieval Ensemble of London"
INDEX 00 02:29:45
FILE "22. Belle, veullies moy retenir.wav" WAVE
INDEX 01 00:00:00
TRACK 23 AUDIO
TITLE "Vergene bella, che di sol vestita"
PERFORMER "The Medieval Ensemble of London"
INDEX 00 03:56:12
FILE "23. Vergene bella, che di sol vestita.wav" WAVE
INDEX 01 00:00:00
TRACK 24 AUDIO
TITLE "Belle, vueillies vostre mercy donner"
PERFORMER "The Medieval Ensemble of London"
INDEX 00 03:35:48
FILE "24. Belle, vueillies vostre mercy donner.wav" WAVE
INDEX 01 00:00:00

Disc 3

01. C’est bien raison de devoir essaucier (9:25)
02. Mon bien, m’amour et ma maistresse (3:54)
03. Je prens congie de vous, amours (3:58)
04. Mille bonjours je vous presente (1:27)
05. Craindre vous vueil, doulce dame de pris (4:48)
06. Entre les plus plaines danoy (1:06)
07. Se la face ay pale (2:50)
08. Dona gentile, bella come l’oro (4:16)
09. Bien doy servir de volente entiere (1:56)
10. Las, que feray? Ne que je devenray? (4:22)
11. Hic iocundus sumit mundus (1:17)
12. Pouray je avoir vostre mercy? (4:01)
13. Qu’est devenue leaulte? (0:55)
14. Ce jour le doibt, aussi fait la saison (5:39)
15. Seigneur Leon, vous soyes bienvenus (1:25)
16. Donnes l’assault a la fortresse (4:17)

Лог создания рипа

Exact Audio Copy V1.0 beta 1 from 15. November 2010
EAC extraction logfile from 18. July 2011, 14:40
Guillaume Dufay / Complete Secular Music - Disc 3
Used drive : TSSTcorpCD/DVDW SH-S182D Adapter: 1 ID: 0
Read mode : Secure
Utilize accurate stream : Yes
Defeat audio cache : Yes
Make use of C2 pointers : No
Read offset correction : 6
Overread into Lead-In and Lead-Out : No
Fill up missing offset samples with silence : Yes
Delete leading and trailing silent blocks : No
Null samples used in CRC calculations : Yes
Used interface : Native Win32 interface for Win NT & 2000
Gap handling : Appended to previous track
Used output format : User Defined Encoder
Selected bitrate : 128 kBit/s
Quality : High
Add ID3 tag : No
Command line compressor : C:\Program Files\Exact Audio Copy\Flac\flac.exe
Additional command line options : -V -8 -T "artist=%a" -T "title=%t" -T "album=%g" -T "date=%y" -T "tracknumber=%n" -T "genre=%m" %s
TOC of the extracted CD
Track | Start | Length | Start sector | End sector
---------------------------------------------------------
1 | 0:00.32 | 9:25.08 | 32 | 42414
2 | 9:25.40 | 3:54.15 | 42415 | 59979
3 | 13:19.55 | 3:57.52 | 59980 | 77806
4 | 17:17.32 | 1:26.55 | 77807 | 84311
5 | 18:44.12 | 4:48.25 | 84312 | 105936
6 | 23:32.37 | 1:05.68 | 105937 | 110879
7 | 24:38.30 | 2:50.02 | 110880 | 123631
8 | 27:28.32 | 4:16.23 | 123632 | 142854
9 | 31:44.55 | 1:56.07 | 142855 | 151561
10 | 33:40.62 | 4:22.35 | 151562 | 171246
11 | 38:03.22 | 1:17.08 | 171247 | 177029
12 | 39:20.30 | 4:00.60 | 177030 | 195089
13 | 43:21.15 | 0:54.52 | 195090 | 199191
14 | 44:15.67 | 5:38.58 | 199192 | 224599
15 | 49:54.50 | 1:24.40 | 224600 | 230939
16 | 51:19.15 | 4:17.25 | 230940 | 250239
Track 1
Filename D:\EAC Rips\Guillaume Dufay - 1997 - Complete Secular Music - Disc 3\01 - C'est bien raison de devoir essaucier.wav
Pre-gap length 0:00:02.42
Peak level 71.1 %
Extraction speed 5.0 X
Track quality 100.0 %
Test CRC 99EBDA68
Copy CRC 99EBDA68
Accurately ripped (confidence 4) [364D0285]
Copy OK
Track 2
Filename D:\EAC Rips\Guillaume Dufay - 1997 - Complete Secular Music - Disc 3\02 - Mon bien, m'amour et ma maistresse.wav
Pre-gap length 0:00:03.84
Peak level 41.9 %
Extraction speed 5.3 X
Track quality 100.0 %
Test CRC 23BCBEB2
Copy CRC 23BCBEB2
Accurately ripped (confidence 4) [21C43BD8]
Copy OK
Track 3
Filename D:\EAC Rips\Guillaume Dufay - 1997 - Complete Secular Music - Disc 3\03 - Je prens congie de vous, amours.wav
Pre-gap length 0:00:04.20
Peak level 77.8 %
Extraction speed 5.6 X
Track quality 100.0 %
Test CRC 14852509
Copy CRC 14852509
Accurately ripped (confidence 4) [BB758CE1]
Copy OK
Track 4
Filename D:\EAC Rips\Guillaume Dufay - 1997 - Complete Secular Music - Disc 3\04 - Mille bonjours je vous presente.wav
Pre-gap length 0:00:03.93
Peak level 38.8 %
Extraction speed 4.6 X
Track quality 100.0 %
Test CRC C89C2891
Copy CRC C89C2891
Accurately ripped (confidence 4) [5A25A059]
Copy OK
Track 5
Filename D:\EAC Rips\Guillaume Dufay - 1997 - Complete Secular Music - Disc 3\05 - Craindre vous vueil, doulce dame de pris.wav
Pre-gap length 0:00:03.36
Peak level 56.1 %
Extraction speed 6.3 X
Track quality 100.0 %
Test CRC E35300B7
Copy CRC E35300B7
Accurately ripped (confidence 4) [6A45715A]
Copy OK
Track 6
Filename D:\EAC Rips\Guillaume Dufay - 1997 - Complete Secular Music - Disc 3\06 - Entre les plus plaines danoy.wav
Pre-gap length 0:00:03.09
Peak level 22.7 %
Extraction speed 4.6 X
Track quality 100.0 %
Test CRC 928743C6
Copy CRC 928743C6
Accurately ripped (confidence 4) [6E1351D2]
Copy OK
Track 7
Filename D:\EAC Rips\Guillaume Dufay - 1997 - Complete Secular Music - Disc 3\07 - Se la face ay pale.wav
Pre-gap length 0:00:04.10
Peak level 56.8 %
Extraction speed 5.1 X
Track quality 99.9 %
Test CRC 4FF23C95
Copy CRC 4FF23C95
Accurately ripped (confidence 4) [76373C65]
Copy OK
Track 8
Filename D:\EAC Rips\Guillaume Dufay - 1997 - Complete Secular Music - Disc 3\08 - Dona gentile, bella come l'oro.wav
Pre-gap length 0:00:02.80
Peak level 36.2 %
Extraction speed 6.8 X
Track quality 100.0 %
Test CRC 5C395D8A
Copy CRC 5C395D8A
Accurately ripped (confidence 4) [7616710A]
Copy OK
Track 9
Filename D:\EAC Rips\Guillaume Dufay - 1997 - Complete Secular Music - Disc 3\09 - Bien doy servir de volente entiere.wav
Pre-gap length 0:00:04.04
Peak level 77.1 %
Extraction speed 6.1 X
Track quality 100.0 %
Test CRC A93D4A11
Copy CRC A93D4A11
Accurately ripped (confidence 4) [FF928560]
Copy OK
Track 10
Filename D:\EAC Rips\Guillaume Dufay - 1997 - Complete Secular Music - Disc 3\10 - Las, que feray Ne que je devenray.wav
Pre-gap length 0:00:03.26
Peak level 47.8 %
Extraction speed 7.3 X
Track quality 100.0 %
Test CRC 22B3D151
Copy CRC 22B3D151
Accurately ripped (confidence 4) [8315FB3D]
Copy OK
Track 11
Filename D:\EAC Rips\Guillaume Dufay - 1997 - Complete Secular Music - Disc 3\11 - Hic iocundus sumit mundus.wav
Pre-gap length 0:00:04.60
Peak level 7.6 %
Extraction speed 5.6 X
Track quality 100.0 %
Test CRC 5BCD8D2F
Copy CRC 5BCD8D2F
Accurately ripped (confidence 3) [56BBB681]
Copy OK
Track 12
Filename D:\EAC Rips\Guillaume Dufay - 1997 - Complete Secular Music - Disc 3\12 - Pouray je avoir vostre mercy.wav
Pre-gap length 0:00:02.84
Peak level 68.1 %
Extraction speed 7.5 X
Track quality 100.0 %
Test CRC C63309DA
Copy CRC C63309DA
Accurately ripped (confidence 4) [9DE12E7F]
Copy OK
Track 13
Filename D:\EAC Rips\Guillaume Dufay - 1997 - Complete Secular Music - Disc 3\13 - Qu'est devenue leaulte.wav
Pre-gap length 0:00:03.93
Peak level 29.5 %
Extraction speed 5.1 X
Track quality 100.0 %
Test CRC B6C2D84E
Copy CRC B6C2D84E
Accurately ripped (confidence 4) [1F6AA3E8]
Copy OK
Track 14
Filename D:\EAC Rips\Guillaume Dufay - 1997 - Complete Secular Music - Disc 3\14 - Ce jour le doibt, aussi fait la saison.wav
Pre-gap length 0:00:03.82
Peak level 86.8 %
Extraction speed 8.2 X
Track quality 100.0 %
Test CRC DC193D35
Copy CRC DC193D35
Accurately ripped (confidence 4) [6380FF3D]
Copy OK
Track 15
Filename D:\EAC Rips\Guillaume Dufay - 1997 - Complete Secular Music - Disc 3\15 - Seigneur Leon, vous soyes bienvenus.wav
Pre-gap length 0:00:04.06
Peak level 52.9 %
Extraction speed 6.2 X
Track quality 100.0 %
Test CRC A7C4F930
Copy CRC A7C4F930
Accurately ripped (confidence 4) [DC77B987]
Copy OK
Track 16
Filename D:\EAC Rips\Guillaume Dufay - 1997 - Complete Secular Music - Disc 3\16 - Donnes l'assault a la fortresse.wav
Pre-gap length 0:00:03.26
Peak level 68.0 %
Extraction speed 8.3 X
Track quality 100.0 %
Test CRC C2FD6718
Copy CRC C2FD6718
Accurately ripped (confidence 4) [6A6D8B67]
Copy OK
All tracks accurately ripped
No errors occurred
End of status report
==== Log checksum 17BDF83CC11AAACDC7B58B0333167B45BB0F256B08EBAA6A800DCC52AC2C043A ====

Содержание индексной карты (.CUE)

REM DATE 1997
REM DISCID D00D0810
REM COMMENT "ExactAudioCopy v1.0b1"
PERFORMER "The Medieval Ensemble of London"
TITLE "Complete Secular Music"
FILE "01. C’est bien raison de devoir essaucier.wav" WAVE
TRACK 01 AUDIO
TITLE "C’est bien raison de devoir essaucier"
PERFORMER "The Medieval Ensemble of London"
PREGAP 00:00:32
INDEX 01 00:00:00
TRACK 02 AUDIO
TITLE "Mon bien, m’amour et ma maistresse"
PERFORMER "The Medieval Ensemble of London"
INDEX 00 09:21:20
FILE "02. Mon bien, m’amour et ma maistresse.wav" WAVE
INDEX 01 00:00:00
TRACK 03 AUDIO
TITLE "Je prens congie de vous, amours"
PERFORMER "The Medieval Ensemble of London"
INDEX 00 03:50:00
FILE "03. Je prens congie de vous, amours.wav" WAVE
INDEX 01 00:00:00
TRACK 04 AUDIO
TITLE "Mille bonjours je vous presente"
PERFORMER "The Medieval Ensemble of London"
INDEX 00 03:53:57
FILE "04. Mille bonjours je vous presente.wav" WAVE
INDEX 01 00:00:00
TRACK 05 AUDIO
TITLE "Craindre vous vueil, doulce dame de pris"
PERFORMER "The Medieval Ensemble of London"
INDEX 00 01:23:28
FILE "05. Craindre vous vueil, doulce dame de pris.wav" WAVE
INDEX 01 00:00:00
TRACK 06 AUDIO
TITLE "Entre les plus plaines danoy"
PERFORMER "The Medieval Ensemble of London"
INDEX 00 04:45:18
FILE "06. Entre les plus plaines danoy.wav" WAVE
INDEX 01 00:00:00
TRACK 07 AUDIO
TITLE "Se la face ay pale"
PERFORMER "The Medieval Ensemble of London"
INDEX 00 01:01:60
FILE "07. Se la face ay pale.wav" WAVE
INDEX 01 00:00:00
TRACK 08 AUDIO
TITLE "Dona gentile, bella come l’oro"
PERFORMER "The Medieval Ensemble of London"
INDEX 00 02:47:17
FILE "08. Dona gentile, bella come l’oro.wav" WAVE
INDEX 01 00:00:00
TRACK 09 AUDIO
TITLE "Bien doy servir de volente entiere"
PERFORMER "The Medieval Ensemble of London"
INDEX 00 04:12:20
FILE "09. Bien doy servir de volente entiere.wav" WAVE
INDEX 01 00:00:00
TRACK 10 AUDIO
TITLE "Las, que feray? Ne que je devenray?"
PERFORMER "The Medieval Ensemble of London"
INDEX 00 01:52:62
FILE "10. Las, que feray_ Ne que je devenray_.wav" WAVE
INDEX 01 00:00:00
TRACK 11 AUDIO
TITLE "Hic iocundus sumit mundus"
PERFORMER "The Medieval Ensemble of London"
INDEX 00 04:17:65
FILE "11. Hic iocundus sumit mundus.wav" WAVE
INDEX 01 00:00:00
TRACK 12 AUDIO
TITLE "Pouray je avoir vostre mercy?"
PERFORMER "The Medieval Ensemble of London"
INDEX 00 01:14:20
FILE "12. Pouray je avoir vostre mercy_.wav" WAVE
INDEX 01 00:00:00
TRACK 13 AUDIO
TITLE "Qu’est devenue leaulte?"
PERFORMER "The Medieval Ensemble of London"
INDEX 00 03:56:65
FILE "13. Qu’est devenue leaulte_.wav" WAVE
INDEX 01 00:00:00
TRACK 14 AUDIO
TITLE "Ce jour le doibt, aussi fait la saison"
PERFORMER "The Medieval Ensemble of London"
INDEX 00 00:50:65
FILE "14. Ce jour le doibt, aussi fait la saison.wav" WAVE
INDEX 01 00:00:00
TRACK 15 AUDIO
TITLE "Seigneur Leon, vous soyes bienvenus"
PERFORMER "The Medieval Ensemble of London"
INDEX 00 05:34:53
FILE "15. Seigneur Leon, vous soyes bienvenus.wav" WAVE
INDEX 01 00:00:00
TRACK 16 AUDIO
TITLE "Donnes l’assault a la fortresse"
PERFORMER "The Medieval Ensemble of London"
INDEX 00 01:21:20
FILE "16. Donnes l’assault a la fortresse.wav" WAVE
INDEX 01 00:00:00

Disc 4

01. Se la face ay pale (2:51)
02. Je languis en piteux martire (5:39)
03. Trop lonc temps ai esté en desplaisir (1:42)
04. J’ayme bien celui qui s’en va (2:35)
05. Va t’en, mon cuer, jour et nuitie (3:59)
06. Puisque celle qui me tient en prison (0:58)
07. Vo regard et doulce maniere (2:59)
08. Or pleust a dieu qu’a son plaisir (5:25)
09. Juvenis qui puellam (5:17)
10. Je n’ai doubté fors que des envieux (1:19)
11. Par la regart de vos beaux yeux (3:54)
12. Adieu, quitte le demeurant de ma vie (1:07)
13. S’il est plaisir que je vous puisse faire (6:42)
14. Belle, vueilles moy vangier (5:20)
15. Lamentatio sanctae matris ecclesiae constantinopolitanae (3:15)
16. Adieu m’amour, adieu ma joye (5:36)
17. Se la face ay pale (1:15)
18. Ne je ne dors ne je ne veille (5:03)
19. Puisque vous estez campieur (3:34)

Лог создания рипа

Exact Audio Copy V1.0 beta 1 from 15. November 2010
EAC extraction logfile from 18. July 2011, 15:05
Guillaume Dufay / Complete Secular Music - Disc 4
Used drive : TSSTcorpCD/DVDW SH-S182D Adapter: 1 ID: 0
Read mode : Secure
Utilize accurate stream : Yes
Defeat audio cache : Yes
Make use of C2 pointers : No
Read offset correction : 6
Overread into Lead-In and Lead-Out : No
Fill up missing offset samples with silence : Yes
Delete leading and trailing silent blocks : No
Null samples used in CRC calculations : Yes
Used interface : Native Win32 interface for Win NT & 2000
Gap handling : Appended to previous track
Used output format : User Defined Encoder
Selected bitrate : 128 kBit/s
Quality : High
Add ID3 tag : No
Command line compressor : C:\Program Files\Exact Audio Copy\Flac\flac.exe
Additional command line options : -V -8 -T "artist=%a" -T "title=%t" -T "album=%g" -T "date=%y" -T "tracknumber=%n" -T "genre=%m" %s
TOC of the extracted CD
Track | Start | Length | Start sector | End sector
---------------------------------------------------------
1 | 0:00.32 | 2:50.63 | 32 | 12844
2 | 2:51.20 | 5:39.30 | 12845 | 38299
3 | 8:30.50 | 1:42.05 | 38300 | 45954
4 | 10:12.55 | 2:35.00 | 45955 | 57579
5 | 12:47.55 | 3:59.07 | 57580 | 75511
6 | 16:46.62 | 0:58.28 | 75512 | 79889
7 | 17:45.15 | 2:58.42 | 79890 | 93281
8 | 20:43.57 | 5:24.70 | 93282 | 117651
9 | 26:08.52 | 5:16.38 | 117652 | 141389
10 | 31:25.15 | 1:18.67 | 141390 | 147306
11 | 32:44.07 | 3:53.68 | 147307 | 164849
12 | 36:38.00 | 1:06.50 | 164850 | 169849
13 | 37:44.50 | 6:41.42 | 169850 | 199966
14 | 44:26.17 | 5:20.10 | 199967 | 223976
15 | 49:46.27 | 3:14.38 | 223977 | 238564
16 | 53:00.65 | 5:35.55 | 238565 | 263744
17 | 58:36.45 | 1:15.12 | 263745 | 269381
18 | 59:51.57 | 5:03.05 | 269382 | 292111
19 | 64:54.62 | 3:33.38 | 292112 | 308124
Track 1
Filename D:\EAC Rips\Guillaume Dufay - - Complete Secular Music - Disc 4\01 - Se la face ay pale.wav
Pre-gap length 0:00:02.42
Peak level 70.2 %
Extraction speed 2.8 X
Track quality 99.8 %
Test CRC DCFED1B4
Copy CRC DCFED1B4
Accurately ripped (confidence 4) [D0C9A9BB]
Copy OK
Track 2
Filename D:\EAC Rips\Guillaume Dufay - - Complete Secular Music - Disc 4\02 - Je languis en piteux martire.wav
Pre-gap length 0:00:03.70
Peak level 32.7 %
Extraction speed 5.5 X
Track quality 100.0 %
Test CRC 43ABE1B3
Copy CRC 43ABE1B3
Accurately ripped (confidence 4) [651AA1AE]
Copy OK
Track 3
Filename D:\EAC Rips\Guillaume Dufay - - Complete Secular Music - Disc 4\03 - Trop lonc temps ai est en desplaisir.wav
Pre-gap length 0:00:03.93
Peak level 35.3 %
Extraction speed 4.7 X
Track quality 100.0 %
Test CRC 4752C170
Copy CRC 4752C170
Accurately ripped (confidence 4) [18378431]
Copy OK
Track 4
Filename D:\EAC Rips\Guillaume Dufay - - Complete Secular Music - Disc 4\04 - J'ayme bien celui qui s'en va.wav
Pre-gap length 0:00:03.53
Peak level 84.6 %
Extraction speed 5.3 X
Track quality 100.0 %
Test CRC 2508D90C
Copy CRC 2508D90C
Accurately ripped (confidence 4) [3EF1D85C]
Copy OK
Track 5
Filename D:\EAC Rips\Guillaume Dufay - - Complete Secular Music - Disc 4\05 - Va t'en, mon cuer, jour et nuitie.wav
Pre-gap length 0:00:04.46
Peak level 61.2 %
Extraction speed 5.3 X
Track quality 99.9 %
Test CRC DEA4DD66
Copy CRC DEA4DD66
Accurately ripped (confidence 4) [991811EF]
Copy OK
Track 6
Filename D:\EAC Rips\Guillaume Dufay - - Complete Secular Music - Disc 4\06 - Puisque celle qui me tient en prison.wav
Pre-gap length 0:00:04.16
Peak level 92.1 %
Extraction speed 4.3 X
Track quality 100.0 %
Test CRC 19217047
Copy CRC 19217047
Accurately ripped (confidence 4) [475AF3C3]
Copy OK
Track 7
Filename D:\EAC Rips\Guillaume Dufay - - Complete Secular Music - Disc 4\07 - Vo regard et doulce maniere.wav
Pre-gap length 0:00:03.44
Peak level 72.4 %
Extraction speed 6.2 X
Track quality 100.0 %
Test CRC 6E3CCAA5
Copy CRC 6E3CCAA5
Accurately ripped (confidence 4) [CBD1F5D1]
Copy OK
Track 8
Filename D:\EAC Rips\Guillaume Dufay - - Complete Secular Music - Disc 4\08 - Or pleust a dieu qu'a son plaisir.wav
Pre-gap length 0:00:04.62
Peak level 51.4 %
Extraction speed 7.1 X
Track quality 100.0 %
Test CRC 0593D030
Copy CRC 0593D030
Accurately ripped (confidence 4) [D959E79B]
Copy OK
Track 9
Filename D:\EAC Rips\Guillaume Dufay - - Complete Secular Music - Disc 4\09 - Juvenis qui puellam.wav
Pre-gap length 0:00:02.80
Peak level 70.1 %
Extraction speed 7.4 X
Track quality 100.0 %
Test CRC 7C60A153
Copy CRC 7C60A153
Accurately ripped (confidence 4) [118FA2D7]
Copy OK
Track 10
Filename D:\EAC Rips\Guillaume Dufay - - Complete Secular Music - Disc 4\10 - Je n'ai doubt fors que des envieux.wav
Pre-gap length 0:00:03.70
Peak level 20.2 %
Extraction speed 5.6 X
Track quality 100.0 %
Test CRC 6E0399D8
Copy CRC 6E0399D8
Accurately ripped (confidence 4) [9653A440]
Copy OK
Track 11
Filename D:\EAC Rips\Guillaume Dufay - - Complete Secular Music - Disc 4\11 - Par la regart de vos beaux yeux.wav
Pre-gap length 0:00:03.26
Peak level 38.0 %
Extraction speed 7.5 X
Track quality 100.0 %
Test CRC 678C4E47
Copy CRC 678C4E47
Accurately ripped (confidence 4) [E9F80E09]
Copy OK
Track 12
Filename D:\EAC Rips\Guillaume Dufay - - Complete Secular Music - Disc 4\12 - Adieu, quitte le demeurant de ma vie.wav
Pre-gap length 0:00:04.00
Peak level 31.1 %
Extraction speed 5.6 X
Track quality 100.0 %
Test CRC 9D74D5C7
Copy CRC 9D74D5C7
Accurately ripped (confidence 4) [723700DC]
Copy OK
Track 13
Filename D:\EAC Rips\Guillaume Dufay - - Complete Secular Music - Disc 4\13 - S'il est plaisir que je voux puisse faire.wav
Pre-gap length 0:00:03.50
Peak level 56.6 %
Extraction speed 8.5 X
Track quality 100.0 %
Test CRC 3C331197
Copy CRC 3C331197
Accurately ripped (confidence 4) [F309FC47]
Copy OK
Track 14
Filename D:\EAC Rips\Guillaume Dufay - - Complete Secular Music - Disc 4\14 - Belle, vueilles moy vangier.wav
Pre-gap length 0:00:04.26
Peak level 48.1 %
Extraction speed 7.8 X
Track quality 99.9 %
Test CRC 07E34B9A
Copy CRC 07E34B9A
Accurately ripped (confidence 4) [A504C845]
Copy OK
Track 15
Filename D:\EAC Rips\Guillaume Dufay - - Complete Secular Music - Disc 4\15 - Lamentatio sanctae matris ecclesiae constantinopolitanae.wav
Pre-gap length 0:00:04.49
Peak level 28.4 %
Extraction speed 8.3 X
Track quality 100.0 %
Test CRC F73264F7
Copy CRC F73264F7
Accurately ripped (confidence 4) [276954F7]
Copy OK
Track 16
Filename D:\EAC Rips\Guillaume Dufay - - Complete Secular Music - Disc 4\16 - Adieu m'amour, adieu ma joye.wav
Pre-gap length 0:00:03.97
Peak level 48.6 %
Extraction speed 9.1 X
Track quality 100.0 %
Test CRC E8EBB29A
Copy CRC E8EBB29A
Accurately ripped (confidence 4) [E624603D]
Copy OK
Track 17
Filename D:\EAC Rips\Guillaume Dufay - - Complete Secular Music - Disc 4\17 - Se la face ay pale.wav
Pre-gap length 0:00:04.73
Peak level 21.3 %
Extraction speed 6.8 X
Track quality 100.0 %
Test CRC 70DB743E
Copy CRC 70DB743E
Accurately ripped (confidence 4) [29833EE8]
Copy OK
Track 18
Filename D:\EAC Rips\Guillaume Dufay - - Complete Secular Music - Disc 4\18 - Ne je ne dors ne je ne veille.wav
Pre-gap length 0:00:05.29
Peak level 90.5 %
Extraction speed 9.4 X
Track quality 100.0 %
Test CRC 2D1CAF9E
Copy CRC 2D1CAF9E
Accurately ripped (confidence 4) [BBCA2966]
Copy OK
Track 19
Filename D:\EAC Rips\Guillaume Dufay - - Complete Secular Music - Disc 4\19 - Puisque vous estez campieur.wav
Pre-gap length 0:00:02.89
Peak level 87.3 %
Extraction speed 7.9 X
Track quality 99.9 %
Test CRC 6FE3A85A
Copy CRC 6FE3A85A
Accurately ripped (confidence 4) [72F58114]
Copy OK
All tracks accurately ripped
No errors occurred
End of status report
==== Log checksum 63BCF3D78F710C25AA574B4AC1126EC7C0CDF6D0D8E03C62CB41BB86044B88D0 ====

Содержание индексной карты (.CUE)

REM DATE 1997
REM DISCID 27100C13
REM COMMENT "ExactAudioCopy v1.0b1"
PERFORMER "The Medieval Ensemble of London"
TITLE "Complete Secular Music"
FILE "01. Se la face ay pale.wav" WAVE
TRACK 01 AUDIO
TITLE "Se la face ay pale"
PERFORMER "The Medieval Ensemble of London"
PREGAP 00:00:32
INDEX 01 00:00:00
TRACK 02 AUDIO
TITLE "Je languis en piteux martire"
PERFORMER "The Medieval Ensemble of London"
INDEX 00 02:47:10
FILE "02. Je languis en piteux martire.wav" WAVE
INDEX 01 00:00:00
TRACK 03 AUDIO
TITLE "Trop lonc temps ai esté en desplaisir"
PERFORMER "The Medieval Ensemble of London"
INDEX 00 05:35:35
FILE "03. Trop lonc temps ai esté en desplaisir.wav" WAVE
INDEX 01 00:00:00
TRACK 04 AUDIO
TITLE "J’ayme bien celui qui s’en va"
PERFORMER "The Medieval Ensemble of London"
INDEX 00 01:38:40
FILE "04. J’ayme bien celui qui s’en va.wav" WAVE
INDEX 01 00:00:00
TRACK 05 AUDIO
TITLE "Va t’en, mon cuer, jour et nuitie"
PERFORMER "The Medieval Ensemble of London"
INDEX 00 02:30:40
FILE "05. Va t’en, mon cuer, jour et nuitie.wav" WAVE
INDEX 01 00:00:00
TRACK 06 AUDIO
TITLE "Puisque celle qui me tient en prison"
PERFORMER "The Medieval Ensemble of London"
INDEX 00 03:54:70
FILE "06. Puisque celle qui me tient en prison.wav" WAVE
INDEX 01 00:00:00
TRACK 07 AUDIO
TITLE "Vo regard et doulce maniere"
PERFORMER "The Medieval Ensemble of London"
INDEX 00 00:54:70
FILE "07. Vo regard et doulce maniere.wav" WAVE
INDEX 01 00:00:00
TRACK 08 AUDIO
TITLE "Or pleust a dieu qu’a son plaisir"
PERFORMER "The Medieval Ensemble of London"
INDEX 00 02:53:70
FILE "08. Or pleust a dieu qu’a son plaisir.wav" WAVE
INDEX 01 00:00:00
TRACK 09 AUDIO
TITLE "Juvenis qui puellam"
PERFORMER "The Medieval Ensemble of London"
INDEX 00 05:22:10
FILE "09. Juvenis qui puellam.wav" WAVE
INDEX 01 00:00:00
TRACK 10 AUDIO
TITLE "Je n’ai doubté fors que des envieux"
PERFORMER "The Medieval Ensemble of London"
INDEX 00 05:12:60
FILE "10. Je n’ai doubté fors que des envieux.wav" WAVE
INDEX 01 00:00:00
TRACK 11 AUDIO
TITLE "Par la regart de vos beaux yeux"
PERFORMER "The Medieval Ensemble of London"
INDEX 00 01:15:47
FILE "11. Par la regart de vos beaux yeux.wav" WAVE
INDEX 01 00:00:00
TRACK 12 AUDIO
TITLE "Adieu, quitte le demeurant de ma vie"
PERFORMER "The Medieval Ensemble of London"
INDEX 00 03:49:68
FILE "12. Adieu, quitte le demeurant de ma vie.wav" WAVE
INDEX 01 00:00:00
TRACK 13 AUDIO
TITLE "S’il est plaisir que je vous puisse faire"
PERFORMER "The Medieval Ensemble of London"
INDEX 00 01:03:12
FILE "13. S’il est plaisir que je vous puisse faire.wav" WAVE
INDEX 01 00:00:00
TRACK 14 AUDIO
TITLE "Belle, vueilles moy vangier"
PERFORMER "The Medieval Ensemble of London"
INDEX 00 06:37:22
FILE "14. Belle, vueilles moy vangier.wav" WAVE
INDEX 01 00:00:00
TRACK 15 AUDIO
TITLE "Lamentatio sanctae matris ecclesiae constantinopolitanae"
PERFORMER "The Medieval Ensemble of London"
INDEX 00 05:15:48
FILE "15. Lamentatio sanctae matris ecclesiae constantinopolitanae.wav" WAVE
INDEX 01 00:00:00
TRACK 16 AUDIO
TITLE "Adieu m’amour, adieu ma joye"
PERFORMER "The Medieval Ensemble of London"
INDEX 00 03:10:40
FILE "16. Adieu m’amour, adieu ma joye.wav" WAVE
INDEX 01 00:00:00
TRACK 17 AUDIO
TITLE "Se la face ay pale"
PERFORMER "The Medieval Ensemble of London"
INDEX 00 05:31:00
FILE "17. Se la face ay pale.wav" WAVE
INDEX 01 00:00:00
TRACK 18 AUDIO
TITLE "Ne je ne dors ne je ne veille"
PERFORMER "The Medieval Ensemble of London"
INDEX 00 01:09:65
FILE "18. Ne je ne dors ne je ne veille.wav" WAVE
INDEX 01 00:00:00
TRACK 19 AUDIO
TITLE "Puisque vous estez campieur"
PERFORMER "The Medieval Ensemble of London"
INDEX 00 05:00:13
FILE "19. Puisque vous estez campieur.wav" WAVE
INDEX 01 00:00:00

Disc 5

01. O flos florum virginum (1:10)
02. Je vous pri, mon tres doulx ami (1:38)
03. Ma plus mignonne de mon cueur (4:08)
04. Departes vous, male bouche et envie (1:17)
05. Dieu gard la bone sans reprise (5:34)
06. En triumphant de Cruel Dueil (4:55)
07. Je ne vis onques la pareille (4:06)
08. De ma haulte et bonne aventure (6:03)
09. Du tout m’estoie abondonné (1:25)
10. Malheureulx cueur, que vieulx tu faire? (4:38)
11. Mon seul plaisir, ma doulce joye (4:53)
12. Helas mon dueil, a ce cop sui ie mort (3:05)
13. Franc cuer gentil, sur toutes gracieuse (5:32)
14. Vostre bruit et vostre grant fame (5:33)
15. Resistera (1:10)
16. Le serviteur hault guerdonné (5:12)
17. Les douleurs, dont me sens tel somme (5:27)

Лог создания рипа

Exact Audio Copy V1.0 beta 1 from 15. November 2010
EAC extraction logfile from 18. July 2011, 15:43
Guillaume Dufay / Complete Secular Music - Disc 5
Used drive : TSSTcorpCD/DVDW SH-S182D Adapter: 1 ID: 0
Read mode : Secure
Utilize accurate stream : Yes
Defeat audio cache : Yes
Make use of C2 pointers : No
Read offset correction : 6
Overread into Lead-In and Lead-Out : No
Fill up missing offset samples with silence : Yes
Delete leading and trailing silent blocks : No
Null samples used in CRC calculations : Yes
Used interface : Native Win32 interface for Win NT & 2000
Gap handling : Appended to previous track
Used output format : User Defined Encoder
Selected bitrate : 128 kBit/s
Quality : High
Add ID3 tag : No
Command line compressor : C:\Program Files\Exact Audio Copy\Flac\flac.exe
Additional command line options : -V -8 -T "artist=%a" -T "title=%t" -T "album=%g" -T "date=%y" -T "tracknumber=%n" -T "genre=%m" %s
TOC of the extracted CD
Track | Start | Length | Start sector | End sector
---------------------------------------------------------
1 | 0:00.32 | 1:09.73 | 32 | 5279
2 | 1:10.30 | 1:38.07 | 5280 | 12636
3 | 2:48.37 | 4:07.60 | 12637 | 31221
4 | 6:56.22 | 1:16.58 | 31222 | 36979
5 | 8:13.05 | 5:34.12 | 36980 | 62041
6 | 13:47.17 | 4:54.70 | 62042 | 84161
7 | 18:42.12 | 4:05.45 | 84162 | 102581
8 | 22:47.57 | 6:02.63 | 102582 | 129794
9 | 28:50.45 | 1:25.02 | 129795 | 136171
10 | 30:15.47 | 4:37.70 | 136172 | 157016
11 | 34:53.42 | 4:52.55 | 157017 | 178971
12 | 39:46.22 | 3:05.00 | 178972 | 192846
13 | 42:51.22 | 5:32.00 | 192847 | 217746
14 | 48:23.22 | 5:33.05 | 217747 | 242726
15 | 53:56.27 | 1:10.20 | 242727 | 247996
16 | 55:06.47 | 5:12.23 | 247997 | 271419
17 | 60:18.70 | 5:27.37 | 271420 | 295981
Track 1
Filename D:\EAC Rips\Guillaume Dufay - - Complete Secular Music - Disc 5\01 - O flos florum virginum.wav
Pre-gap length 0:00:02.42
Peak level 15.4 %
Extraction speed 3.5 X
Track quality 100.0 %
Test CRC 6A651208
Copy CRC 6A651208
Accurately ripped (confidence 4) [D31D8317]
Copy OK
Track 2
Filename D:\EAC Rips\Guillaume Dufay - - Complete Secular Music - Disc 5\02 - Je vous pri, mon tres doulx ami.wav
Pre-gap length 0:00:04.06
Peak level 51.2 %
Extraction speed 2.5 X
Track quality 99.7 %
Test CRC 090BCABC
Copy CRC 090BCABC
Accurately ripped (confidence 4) [3F50E2CC]
Copy OK
Track 3
Filename D:\EAC Rips\Guillaume Dufay - - Complete Secular Music - Disc 5\03 - Ma plus mignonne de mon cueur.wav
Pre-gap length 0:00:03.86
Peak level 71.0 %
Extraction speed 5.2 X
Track quality 100.0 %
Test CRC D397338B
Copy CRC D397338B
Accurately ripped (confidence 4) [BC95B7FC]
Copy OK
Track 4
Filename D:\EAC Rips\Guillaume Dufay - - Complete Secular Music - Disc 5\04 - Departes vous, male bouche et envie.wav
Pre-gap length 0:00:04.09
Peak level 41.8 %
Extraction speed 4.2 X
Track quality 100.0 %
Test CRC 7759932D
Copy CRC 7759932D
Accurately ripped (confidence 4) [48047BC7]
Copy OK
Track 5
Filename D:\EAC Rips\Guillaume Dufay - - Complete Secular Music - Disc 5\05 - Dieu gard la bone sans reprise.wav
Pre-gap length 0:00:04.10
Peak level 52.7 %
Extraction speed 6.1 X
Track quality 100.0 %
Test CRC E8564E5C
Copy CRC E8564E5C
Accurately ripped (confidence 4) [18D6D1F9]
Copy OK
Track 6
Filename D:\EAC Rips\Guillaume Dufay - - Complete Secular Music - Disc 5\06 - En triumphant de Cruel Dueil.wav
Pre-gap length 0:00:02.40
Peak level 56.5 %
Extraction speed 6.4 X
Track quality 100.0 %
Test CRC BEF1A73F
Copy CRC BEF1A73F
Accurately ripped (confidence 4) [87A7CB93]
Copy OK
Track 7
Filename D:\EAC Rips\Guillaume Dufay - - Complete Secular Music - Disc 5\07 - Je ne vis onques la pareille.wav
Pre-gap length 0:00:04.40
Peak level 47.3 %
Extraction speed 6.7 X
Track quality 100.0 %
Test CRC 153328A8
Copy CRC 153328A8
Accurately ripped (confidence 4) [B893519B]
Copy OK
Track 8
Filename D:\EAC Rips\Guillaume Dufay - - Complete Secular Music - Disc 5\08 - De ma haulte et bonne aventure.wav
Pre-gap length 0:00:04.22
Peak level 83.3 %
Extraction speed 7.5 X
Track quality 100.0 %
Test CRC C0727ED1
Copy CRC C0727ED1
Accurately ripped (confidence 4) [6040BA97]
Copy OK
Track 9
Filename D:\EAC Rips\Guillaume Dufay - - Complete Secular Music - Disc 5\09 - Du tout m'estoie abondonn.wav
Pre-gap length 0:00:03.66
Peak level 68.1 %
Extraction speed 5.5 X
Track quality 100.0 %
Test CRC 7DDCE572
Copy CRC 7DDCE572
Accurately ripped (confidence 4) [48207370]
Copy OK
Track 10
Filename D:\EAC Rips\Guillaume Dufay - - Complete Secular Music - Disc 5\10 - Malheureulx cueur, que vieulx tu faire.wav
Pre-gap length 0:00:04.02
Peak level 53.2 %
Extraction speed 6.8 X
Track quality 99.9 %
Test CRC 47C327CA
Copy CRC 47C327CA
Accurately ripped (confidence 4) [28927B94]
Copy OK
Track 11
Filename D:\EAC Rips\Guillaume Dufay - - Complete Secular Music - Disc 5\11 - Mon seul plaisir, ma doulce joye.wav
Pre-gap length 0:00:04.16
Peak level 63.8 %
Extraction speed 8.1 X
Track quality 100.0 %
Test CRC E17DD4BD
Copy CRC E17DD4BD
Accurately ripped (confidence 4) [9C4C594C]
Copy OK
Track 12
Filename D:\EAC Rips\Guillaume Dufay - - Complete Secular Music - Disc 5\12 - Helas mon dueil, a ce cop sui ie mort.wav
Pre-gap length 0:00:03.40
Peak level 42.7 %
Extraction speed 7.7 X
Track quality 100.0 %
Test CRC 3AB2DBD0
Copy CRC 3AB2DBD0
Accurately ripped (confidence 4) [08A4993C]
Copy OK
Track 13
Filename D:\EAC Rips\Guillaume Dufay - - Complete Secular Music - Disc 5\13 - Franc cuer gentil, sur toutes gracieuse.wav
Pre-gap length 0:00:03.42
Peak level 41.2 %
Extraction speed 8.7 X
Track quality 100.0 %
Test CRC DC637D42
Copy CRC DC637D42
Accurately ripped (confidence 4) [5E84119D]
Copy OK
Track 14
Filename D:\EAC Rips\Guillaume Dufay - - Complete Secular Music - Disc 5\14 - Vostre bruit et vostre grant fame.wav
Pre-gap length 0:00:03.56
Peak level 59.5 %
Extraction speed 8.2 X
Track quality 99.9 %
Test CRC EB2A00FF
Copy CRC EB2A00FF
Accurately ripped (confidence 4) [7DD91EC8]
Copy OK
Track 15
Filename D:\EAC Rips\Guillaume Dufay - - Complete Secular Music - Disc 5\15 - Resistera.....wav
Pre-gap length 0:00:03.86
Peak level 66.8 %
Extraction speed 6.5 X
Track quality 100.0 %
Test CRC C655604F
Copy CRC C655604F
Accurately ripped (confidence 4) [EBC72E97]
Copy OK
Track 16
Filename D:\EAC Rips\Guillaume Dufay - - Complete Secular Music - Disc 5\16 - Le serviteur hault guerdonn.wav
Pre-gap length 0:00:03.42
Peak level 87.4 %
Extraction speed 9.3 X
Track quality 100.0 %
Test CRC D5A120BD
Copy CRC D5A120BD
Accurately ripped (confidence 4) [F25FC376]
Copy OK
Track 17
Filename D:\EAC Rips\Guillaume Dufay - - Complete Secular Music - Disc 5\17 - Les douleurs, dont me sens tel somme.wav
Pre-gap length 0:00:05.50
Peak level 49.9 %
Extraction speed 9.7 X
Track quality 100.0 %
Test CRC 69747D77
Copy CRC 69747D77
Accurately ripped (confidence 4) [F71572E0]
Copy OK
All tracks accurately ripped
No errors occurred
End of status report
==== Log checksum 44D401997653413C1844164F9669B1C4634A1C69D30EEB393E38F9C5C036578A ====

Содержание индексной карты (.CUE)

REM DATE 1997
REM DISCID ED0F6A11
REM COMMENT "ExactAudioCopy v1.0b1"
PERFORMER "The Medieval Ensemble of London"
TITLE "Complete Secular Music"
FILE "01. O flos florum virginum.wav" WAVE
TRACK 01 AUDIO
TITLE "O flos florum virginum"
PERFORMER "The Medieval Ensemble of London"
PREGAP 00:00:32
INDEX 01 00:00:00
TRACK 02 AUDIO
TITLE "Je vous pri, mon tres doulx ami"
PERFORMER "The Medieval Ensemble of London"
INDEX 00 01:05:68
FILE "02. Je vous pri, mon tres doulx ami.wav" WAVE
INDEX 01 00:00:00
TRACK 03 AUDIO
TITLE "Ma plus mignonne de mon cueur"
PERFORMER "The Medieval Ensemble of London"
INDEX 00 01:34:17
FILE "03. Ma plus mignonne de mon cueur.wav" WAVE
INDEX 01 00:00:00
TRACK 04 AUDIO
TITLE "Departes vous, male bouche et envie"
PERFORMER "The Medieval Ensemble of London"
INDEX 00 04:03:53
FILE "04. Departes vous, male bouche et envie.wav" WAVE
INDEX 01 00:00:00
TRACK 05 AUDIO
TITLE "Dieu gard la bone sans reprise"
PERFORMER "The Medieval Ensemble of London"
INDEX 00 01:12:50
FILE "05. Dieu gard la bone sans reprise.wav" WAVE
INDEX 01 00:00:00
TRACK 06 AUDIO
TITLE "En triumphant de Cruel Dueil"
PERFORMER "The Medieval Ensemble of London"
INDEX 00 05:31:57
FILE "06. En triumphant de Cruel Dueil.wav" WAVE
INDEX 01 00:00:00
TRACK 07 AUDIO
TITLE "Je ne vis onques la pareille"
PERFORMER "The Medieval Ensemble of London"
INDEX 00 04:50:40
FILE "07. Je ne vis onques la pareille.wav" WAVE
INDEX 01 00:00:00
TRACK 08 AUDIO
TITLE "De ma haulte et bonne aventure"
PERFORMER "The Medieval Ensemble of London"
INDEX 00 04:01:28
FILE "08. De ma haulte et bonne aventure.wav" WAVE
INDEX 01 00:00:00
TRACK 09 AUDIO
TITLE "Du tout m’estoie abondonné"
PERFORMER "The Medieval Ensemble of London"
INDEX 00 05:59:13
FILE "09. Du tout m’estoie abondonné.wav" WAVE
INDEX 01 00:00:00
TRACK 10 AUDIO
TITLE "Malheureulx cueur, que vieulx tu faire?"
PERFORMER "The Medieval Ensemble of London"
INDEX 00 01:21:00
FILE "10. Malheureulx cueur, que vieulx tu faire_.wav" WAVE
INDEX 01 00:00:00
TRACK 11 AUDIO
TITLE "Mon seul plaisir, ma doulce joye"
PERFORMER "The Medieval Ensemble of London"
INDEX 00 04:33:58
FILE "11. Mon seul plaisir, ma doulce joye.wav" WAVE
INDEX 01 00:00:00
TRACK 12 AUDIO
TITLE "Helas mon dueil, a ce cop sui ie mort"
PERFORMER "The Medieval Ensemble of London"
INDEX 00 04:49:25
FILE "12. Helas mon dueil, a ce cop sui ie mort.wav" WAVE
INDEX 01 00:00:00
TRACK 13 AUDIO
TITLE "Franc cuer gentil, sur toutes gracieuse"
PERFORMER "The Medieval Ensemble of London"
INDEX 00 03:01:43
FILE "13. Franc cuer gentil, sur toutes gracieuse.wav" WAVE
INDEX 01 00:00:00
TRACK 14 AUDIO
TITLE "Vostre bruit et vostre grant fame"
PERFORMER "The Medieval Ensemble of London"
INDEX 00 05:28:33
FILE "14. Vostre bruit et vostre grant fame.wav" WAVE
INDEX 01 00:00:00
TRACK 15 AUDIO
TITLE "Resistera"
PERFORMER "The Medieval Ensemble of London"
INDEX 00 05:29:15
FILE "15. Resistera.wav" WAVE
INDEX 01 00:00:00
TRACK 16 AUDIO
TITLE "Le serviteur hault guerdonné"
PERFORMER "The Medieval Ensemble of London"
INDEX 00 01:06:63
FILE "16. Le serviteur hault guerdonné.wav" WAVE
INDEX 01 00:00:00
TRACK 17 AUDIO
TITLE "Les douleurs, dont me sens tel somme"
PERFORMER "The Medieval Ensemble of London"
INDEX 00 05:06:60
FILE "17. Les douleurs, dont me sens tel somme.wav" WAVE
INDEX 01 00:00:00



Показать сообщения:    

Текущее время: 21-Янв 11:37

Часовой пояс: UTC + 3


Вы не можете начинать темы
Вы не можете отвечать на сообщения
Вы не можете редактировать свои сообщения
Вы не можете удалять свои сообщения
Вы не можете голосовать в опросах
Вы не можете прикреплять файлы к сообщениям
Вы не можете скачивать файлы