(Classical) Sibelius - Lemminkainen Suite • Luonnotar • Night Ride • The Maiden in the Tower • Pelleas et Melisande • Valse Triste (Kringelborn, Paasikivi, Jonsson, Magee - Jarvi) - 2008, APE (image+.cue) lossless


 

[Цитировать]

Jean Sibelius - Lemminkainen Suite • Pelléas et Mélisande
Жанр: Classical
Страна-производитель диска: EU
Год издания диска: 2008
Издатель (лейбл): Virgin Classics
Номер по каталогу: 50999 5 22055 2 1
Дата записи: 1996-2001
Аудиокодек: APE
Тип рипа: image+.cue
Битрейт аудио: lossless
Продолжительность: 73'32+67'38
Источник: собственный рип
Наличие сканов в содержимом раздачи: да
Треклист/Исполнители: CD1
1. Nightride and Sunrise, Op.55
2. Luonnotar, Op.70
Lemminkäinen Suite, Op.22
3. I. Lemminkäinen and the Maidens of the Island
4. II. The Swan of Tuonela
5. III. Lemminkäinen in Tuonela
6. IV. Lemminkäinen's Return
Solveig Kringelborn (soprano)
Royal Stockholm Philharmonic Orchestra
Paavo JärviТреклист/Исполнители: CD2
Jungfrun i tornet
Opera in 1 Act
Libretto: Rafael Hertzberg
1. Overture
2. Scene 1
3. Scene 2
4. Scene 3
5. Scene 4
6. Scene 5
7. Scene 6
8. Scene 7
9. Scene 8
Pelléas et Mélisande
Incidental music, Op.46
10. At the Castle Gate
11. Mélisande
12. At the Sea
13. By a spring in the park
14. The three blind sisters
15. Pastorale
16. Mélisande at the spinning wheel
17. Entr'acte
18. The death of Mélisande
19. Valse triste, Op. 44 No. 1
Solveig Kringelborn (soprano)
Lilli Paasikivi (mezzo-sopran)
Lars-Erik Jonsson (tenor)
Garry Magee (baritone)
Ellerhein Girl's Choir
Estonian National Male Choir
Estonian National Symphony Orchestra
Dirigent Paavo Järvi

Лог создания рипа

CD1

Exact Audio Copy V1.0 beta 3 from 29. August 2011
EAC extraction logfile from 8. January 2015, 14:22
Sibelius / Nightride • Luonnotar • Lemminkäinen, Järvi
Used drive : TSSTcorpCDDVDW SE-208AB Adapter: 1 ID: 0
Read mode : Secure
Utilize accurate stream : Yes
Defeat audio cache : Yes
Make use of C2 pointers : No
Read offset correction : 6
Overread into Lead-In and Lead-Out : No
Fill up missing offset samples with silence : Yes
Delete leading and trailing silent blocks : No
Null samples used in CRC calculations : Yes
Used interface : Native Win32 interface for Win NT & 2000
Used output format : Monkey's Audio Lossless Encoder
Selected bitrate : High Lossless Compression
Quality : High
Add ID3 tag : Yes
Command line compressor : C:\Program Files (x86)\Exact Audio Copy\MAC\MAC.exe
TOC of the extracted CD
Track | Start | Length | Start sector | End sector
---------------------------------------------------------
1 | 0:00.32 | 14:41.35 | 32 | 66141
2 | 14:41.67 | 9:17.50 | 66142 | 107966
3 | 23:59.42 | 17:07.55 | 107967 | 185046
4 | 41:07.22 | 9:49.05 | 185047 | 229226
5 | 50:56.27 | 15:53.50 | 229227 | 300751
6 | 66:50.02 | 6:32.28 | 300752 | 330179
Range status and errors
Selected range
Filename D:\EAC\Sibelius - Nightride • Luonnotar • Lemminkäinen, Järvi.wav
Peak level 99.4 %
Extraction speed 2.1 X
Range quality 100.0 %
Test CRC D74D71FF
Copy CRC D74D71FF
Copy OK
No errors occurred
AccurateRip summary
Track 1 accurately ripped (confidence 4) [36084925] (AR v2)
Track 2 accurately ripped (confidence 4) [806787DF] (AR v2)
Track 3 accurately ripped (confidence 4) [8EB0959E] (AR v2)
Track 4 accurately ripped (confidence 4) [7A18F42F] (AR v2)
Track 5 accurately ripped (confidence 4) [F55FE52D] (AR v2)
Track 6 accurately ripped (confidence 4) [E9FB398E] (AR v2)
All tracks accurately ripped
End of status report
---- CUETools DB Plugin V2.1.3
[CTDB TOCID: dpyLHM90iPZ7dXWpryMJmkmMbr4-] disk not present in database, Submit result: discs with pregaps not supported in this protocol version
==== Log checksum 0B34BB8AB8FB409A6B2124FF4FA76706C2C5B9FEBB94669F339DE693E50D3994 ====

CD2

Exact Audio Copy V1.0 beta 3 from 29. August 2011
EAC extraction logfile from 8. January 2015, 14:15
Sibelius / The Maiden • Pelléas • Valse triste, Järvi
Used drive : TS8XDVDSTRANSCEND Adapter: 1 ID: 1
Read mode : Secure
Utilize accurate stream : Yes
Defeat audio cache : Yes
Make use of C2 pointers : No
Read offset correction : 6
Overread into Lead-In and Lead-Out : No
Fill up missing offset samples with silence : Yes
Delete leading and trailing silent blocks : No
Null samples used in CRC calculations : Yes
Used interface : Native Win32 interface for Win NT & 2000
Used output format : Monkey's Audio Lossless Encoder
Selected bitrate : High Lossless Compression
Quality : High
Add ID3 tag : Yes
Command line compressor : C:\Program Files (x86)\Exact Audio Copy\MAC\MAC.exe
TOC of the extracted CD
Track | Start | Length | Start sector | End sector
---------------------------------------------------------
1 | 0:00.00 | 3:14.25 | 0 | 14574
2 | 3:14.25 | 6:22.62 | 14575 | 43286
3 | 9:37.12 | 3:28.08 | 43287 | 58894
4 | 13:05.20 | 5:12.40 | 58895 | 82334
5 | 18:17.60 | 4:31.47 | 82335 | 102706
6 | 22:49.32 | 7:49.45 | 102707 | 137926
7 | 30:39.02 | 1:31.05 | 137927 | 144756
8 | 32:10.07 | 1:34.45 | 144757 | 151851
9 | 33:44.52 | 3:06.45 | 151852 | 165846
10 | 36:51.22 | 2:45.70 | 165847 | 178291
11 | 39:37.17 | 3:49.53 | 178292 | 195519
12 | 43:26.70 | 1:58.65 | 195520 | 204434
13 | 45:25.60 | 2:11.60 | 204435 | 214319
14 | 47:37.45 | 2:08.05 | 214320 | 223924
15 | 49:45.50 | 1:52.25 | 223925 | 232349
16 | 51:38.00 | 2:03.55 | 232350 | 241629
17 | 53:41.55 | 2:52.67 | 241630 | 254596
18 | 56:34.47 | 6:13.13 | 254597 | 282584
19 | 62:47.60 | 4:50.05 | 282585 | 304339
Range status and errors
Selected range
Filename D:\EAC\Sibelius - The Maiden • Pelléas • Valse triste, Järvi.wav
Peak level 98.4 %
Extraction speed 3.3 X
Range quality 100.0 %
Test CRC 47676CC5
Copy CRC 47676CC5
Copy OK
No errors occurred
AccurateRip summary
Track 1 accurately ripped (confidence 5) [BF225C32] (AR v2)
Track 2 accurately ripped (confidence 5) [26B21F38] (AR v2)
Track 3 accurately ripped (confidence 5) [62396ED4] (AR v2)
Track 4 accurately ripped (confidence 5) [1981D52F] (AR v2)
Track 5 accurately ripped (confidence 5) [603AB90A] (AR v2)
Track 6 accurately ripped (confidence 5) [D758929B] (AR v2)
Track 7 accurately ripped (confidence 5) [F90CC001] (AR v2)
Track 8 accurately ripped (confidence 5) [30C3DBD1] (AR v2)
Track 9 accurately ripped (confidence 5) [8E67F581] (AR v2)
Track 10 accurately ripped (confidence 5) [3DA29C8B] (AR v2)
Track 11 accurately ripped (confidence 5) [E9718B03] (AR v2)
Track 12 accurately ripped (confidence 5) [25986F65] (AR v2)
Track 13 accurately ripped (confidence 5) [EA199B81] (AR v2)
Track 14 accurately ripped (confidence 5) [F1699077] (AR v2)
Track 15 accurately ripped (confidence 5) [5161709F] (AR v2)
Track 16 accurately ripped (confidence 5) [652A09F1] (AR v2)
Track 17 accurately ripped (confidence 5) [9D635197] (AR v2)
Track 18 accurately ripped (confidence 5) [E3E20B2C] (AR v2)
Track 19 accurately ripped (confidence 5) [1230FE53] (AR v2)
All tracks accurately ripped
End of status report
---- CUETools DB Plugin V2.1.3
[CTDB TOCID: oCLtIcVHI2uHPbfBuQwVMZhaqBM-] found, Submit result: unrecognized or virtual drive
[d77380b0] (6/6) Accurately ripped
==== Log checksum 9CAF5DA3A3CD1B2DAF2FEF0C4D6A4D642B2645EC77AD6ED1A749233514A99D5B ====

Содержание индексной карты (.CUE)

CD1

REM GENRE Classical
REM DATE 1996
REM DISCID 4B113206
REM COMMENT "ExactAudioCopy v1.0b3"
CATALOG 0724354521324
PERFORMER "Sibelius"
TITLE "Nightride • Luonnotar • Lemminkäinen, Järvi"
FILE "Sibelius - Nightride • Luonnotar • Lemminkäinen, Järvi.ape" WAVE
TRACK 01 AUDIO
TITLE "Nightride and sunrise, tone poem Op.55"
PERFORMER "Sibelius"
INDEX 00 00:00:00
INDEX 01 00:00:32
TRACK 02 AUDIO
TITLE "Luonnotar, tone poem for soprano & orchestra Op.70"
PERFORMER "Sibelius"
INDEX 00 14:41:65
INDEX 01 14:41:67
TRACK 03 AUDIO
TITLE "Lemminkäinen Suite, Op.22 - I. Lemminkäinen and the maiden of the island"
PERFORMER "Sibelius"
INDEX 00 23:59:40
INDEX 01 23:59:42
TRACK 04 AUDIO
TITLE "Lemminkäinen Suite, Op.22 - II. The swan of Tuonela"
PERFORMER "Sibelius"
INDEX 00 41:07:20
INDEX 01 41:07:22
TRACK 05 AUDIO
TITLE "Lemminkäinen Suite, Op.22 - III. Lemminkäinen in Tuonela"
PERFORMER "Sibelius"
INDEX 00 50:56:25
INDEX 01 50:56:27
TRACK 06 AUDIO
TITLE "Lemminkäinen Suite, Op.22 - IV. Lemminkäinen's homeward journey"
PERFORMER "Sibelius"
INDEX 00 66:50:00
INDEX 01 66:50:02

CD2

REM GENRE Classical
REM DATE 2001
REM DISCID 310FD913
REM COMMENT "ExactAudioCopy v1.0b3"
PERFORMER "Sibelius"
TITLE "The Maiden • Pelléas • Valse triste, Järvi"
FILE "Sibelius - The Maiden • Pelléas • Valse triste, Järvi.ape" WAVE
TRACK 01 AUDIO
TITLE "The Maiden in the tower (Jungfrun i tornet) [1896] - Overture"
PERFORMER "Sibelius"
ISRC GBAYC0102401
INDEX 01 00:00:00
TRACK 02 AUDIO
TITLE "The Maiden in the tower - Scene I"
PERFORMER "Sibelius"
ISRC GBAYC0102402
INDEX 01 03:14:25
TRACK 03 AUDIO
TITLE "The Maiden in the tower - Scene II"
PERFORMER "Sibelius"
ISRC GBAYC0102403
INDEX 01 09:37:12
TRACK 04 AUDIO
TITLE "The Maiden in the tower - Scene III"
PERFORMER "Sibelius"
ISRC GBAYC0102403
INDEX 01 13:05:20
TRACK 05 AUDIO
TITLE "The Maiden in the tower - Scene IV"
PERFORMER "Sibelius"
ISRC GBAYC0102405
INDEX 01 18:17:60
TRACK 06 AUDIO
TITLE "The Maiden in the tower - Scene V"
PERFORMER "Sibelius"
ISRC GBAYC0102406
INDEX 01 22:49:32
TRACK 07 AUDIO
TITLE "The Maiden in the tower - Scene VI"
PERFORMER "Sibelius"
ISRC GBAYC0102407
INDEX 01 30:39:02
TRACK 08 AUDIO
TITLE "The Maiden in the tower - Scene VII"
PERFORMER "Sibelius"
ISRC GBAYC0102408
INDEX 01 32:10:07
TRACK 09 AUDIO
TITLE "The Maiden in the tower - Scene VIII"
PERFORMER "Sibelius"
ISRC GBAYC0102409
INDEX 01 33:44:52
TRACK 10 AUDIO
TITLE "Pelléas & Mélisande, incidental music Op.45 [1905] - I. At the castle gate"
PERFORMER "Sibelius"
ISRC GBAYC0102411
INDEX 00 36:40:35
INDEX 01 36:51:22
TRACK 11 AUDIO
TITLE "Pelléas & Mélisande - II. Mélisande"
PERFORMER "Sibelius"
ISRC GBAYC0102411
INDEX 01 39:37:17
TRACK 12 AUDIO
TITLE "Pelléas & Mélisande - II a. By the seashore"
PERFORMER "Sibelius"
ISRC GBAYC0102413
INDEX 01 43:26:70
TRACK 13 AUDIO
TITLE "Pelléas & Mélisande - III. By a spring in the park"
PERFORMER "Sibelius"
ISRC GBAYC0102414
INDEX 01 45:25:60
TRACK 14 AUDIO
TITLE "Pelléas & Mélisande - IV. The three blind sister"
PERFORMER "Sibelius"
ISRC GBAYC0102415
INDEX 01 47:37:45
TRACK 15 AUDIO
TITLE "Pelléas & Mélisande - V. Pastorale"
PERFORMER "Sibelius"
ISRC GBAYC0102416
INDEX 01 49:45:50
TRACK 16 AUDIO
TITLE "Pelléas & Mélisande - VI. Mélisande at the spinning-wheel"
PERFORMER "Sibelius"
ISRC GBAYC0102417
INDEX 01 51:38:00
TRACK 17 AUDIO
TITLE "Pelléas & Mélisande - VII. Entr'acte"
PERFORMER "Sibelius"
ISRC GBAYC0102418
INDEX 01 53:41:55
TRACK 18 AUDIO
TITLE "Pelléas & Mélisande - VIII. The death of Mélisande"
PERFORMER "Sibelius"
ISRC GBAYC0102419
INDEX 01 56:34:47
TRACK 19 AUDIO
TITLE "Valse triste"
PERFORMER "Sibelius"
ISRC GBAYC0102420
INDEX 00 62:37:52
INDEX 01 62:47:60
Доп. информация:
Paavo Järvi makes the best case so far for Sibelius's single opera.
This keeps the opera's discography in the family.
The only other disc is the recording conducted by Neeme Järvi (Paavo's father) from the late 1980s.
It is still there in the BIS catalogue (CD 250 with Gothenburg forces and Jorma Hynninen with Mari-Anne Häggander) but from my recollection that recording pales by comparison with this gripping performance recorded with a very successful illusion of concert-hall breadth and depth - close to the listener yet not claustrophobically so.
The Estonia Concert Hall should be a much sought-after recording venue on this showing.
The opera is about the same length as Delius's Margot la Rouge, Szymanowski's Hagith and Holst's Wandering Scholar; not as much of a hothouse plant as Hagith - rather closer to Margot though stronger I think.
The opera is in eight scenes with a brief overture and an orchestral interlude separating scenes one and two.
The story is essentially of two lovers (Kringelborn and Jonsson) thwarted by the malign bailiff (Magee) who is finally overruled by the clear-eyed judgement of the Chatelaine (Paaskivi).
It did not do well at its Helsinki premiere and though Sibelius flirted with other operatic projects this was the only one to emerge.
In fact it is thoroughly enjoyable (though without the irrepressible ruddy urgency of Lemminkainen and Kullervo) especially as here where the artists play and sing it for all it is worth ... and possibly more.
Ideal CD home listening.
Just one footnote - in scene 3 the choral parallels with the dramatic writing in Kullervo, that most operatic of symphonies, are self-evident.
The duet and trio work in scene 5 are delightful.
The voices are fresh and aptly married to the spirit of the music.
This Pelléas is a good one with gutsy attack in the strings and plenty of balletic rhythmic life.
Valse Triste is rather lack-lustre though I confess I have never heard the patterned string figure at 02.00 done with such a 'feather-shadowed' accent - very individual.
The Estonian orchestra (already known for their creditable Tubin and Madetoja symphony series on Alba) can look forward to further recording contracts while they play like this.



Показать сообщения:    

Текущее время: 06-Дек 20:55

Часовой пояс: UTC + 3


Вы не можете начинать темы
Вы не можете отвечать на сообщения
Вы не можете редактировать свои сообщения
Вы не можете удалять свои сообщения
Вы не можете голосовать в опросах
Вы не можете прикреплять файлы к сообщениям
Вы не можете скачивать файлы