(Classical) Heinrich Schutz - Symphoniae Sacrae I - Musica Fiata, Roland Wilson - 2CD - 2010, FLAC (image+.cue) lossless


Статистика раздачи [Обновить пиров]
Размер:  409 MB   |    Зарегистрирован:  8 месяцев 15 дней   |    Скачан:  0 раз

Полного источника не было: 1 месяц 20 дней

Личеров:  15  [  0 KB/s  ]   Подробная статистика пиров
 
   
 
 
 

[Цитировать]

Heinrich Schütz - Symphoniae Sacrae I - Musica Fiata, Roland Wilson - 2CD
Жанр: Classical
Страна-производитель диска: Germany
Год издания диска: 2010
Издатель (лейбл): Deutsche Harmonia Mundi
Дата записи: 2009
Аудиокодек: FLAC
Тип рипа: image+.cue
Битрейт аудио: lossless
Продолжительность: 86:35
Источник: собственный рип
Наличие сканов в содержимом раздачи: да
Треклист:
Heinrich Schütz (1585-1672)
Symphoniae Sacrae I
CD1
[1] Buccinate in neomenia tuba, SWV 275
[2] Jubilate Deo, SWV 276
[3] Paratum cor meum, SWV 257
[4] Domine, labia mea aperies, SWV 271
[5] Fili mi Absalon, SWV 269
[6] In te Domine, SWV 259
[7] Anima mea liquefacta est, SWV 263
[8] Adjuros vos filiae Hierusalem, SWV 264
[9] Venite ad me, SWV 261
[10] In Lectulo per noctes, SWV 272
[11] Invenerunt me, SWV 273
CD2
[1] Attendite popule meus, legem meam, SWV 270
[2] Cantabo domino, SWV 260
[3] Benedicam Dominum in omni tempore, SWV 267
[4] Exquisivi Dominum, SWV 268
[5] Jubilate Deo, SWV 262
[6] Veni dilecti mi, in hortum meam, SWV 274
[7] Exultavit cor meum, SWV 258
[8] O quam tu pulchra es, SWV 265
[9] Veni de Libano, SWV 266
Исполнители:
Musica Fiata
Roland Wilson
direction

Лог создания рипа: CD1

Exact Audio Copy V1.0 beta 3 from 29. August 2011
EAC extraction logfile from 27. August 2014, 8:48
Musica Fiata, Roland Wilson / Schutz - Symphoniae Sacrae I - CD1
Used drive : HL-DT-STDVDRAM GU70N Adapter: 0 ID: 0
Read mode : Secure
Utilize accurate stream : Yes
Defeat audio cache : Yes
Make use of C2 pointers : No
Read offset correction : 48
Overread into Lead-In and Lead-Out : No
Fill up missing offset samples with silence : Yes
Delete leading and trailing silent blocks : No
Null samples used in CRC calculations : Yes
Used interface : Native Win32 interface for Win NT & 2000
Used output format : User Defined Encoder
Selected bitrate : 128 kBit/s
Quality : High
Add ID3 tag : No
Command line compressor : C:\Program Files (x86)\Exact Audio Copy\Flac\flac.exe
Additional command line options : -V -8 -T "Date=%year%" -T "Genre=%genre%" %source%
TOC of the extracted CD
Track | Start | Length | Start sector | End sector
---------------------------------------------------------
1 | 0:00.00 | 3:31.60 | 0 | 15884
2 | 3:31.60 | 2:46.33 | 15885 | 28367
3 | 6:18.18 | 3:40.42 | 28368 | 44909
4 | 9:58.60 | 3:55.07 | 44910 | 62541
5 | 13:53.67 | 5:16.46 | 62542 | 86287
6 | 19:10.38 | 5:02.56 | 86288 | 108993
7 | 24:13.19 | 3:33.24 | 108994 | 124992
8 | 27:46.43 | 3:30.32 | 124993 | 140774
9 | 31:17.00 | 7:07.15 | 140775 | 172814
10 | 38:24.15 | 4:44.06 | 172815 | 194120
11 | 43:08.21 | 4:11.57 | 194121 | 213002
Range status and errors
Selected range
Filename C:\temp\Schutz - Symphoniae Sacrae I\Schutz - Symphoniae Sacrae I - CD1.wav
Peak level 97.2 %
Extraction speed 4.9 X
Range quality 100.0 %
Test CRC ED374449
Copy CRC ED374449
Copy OK
No errors occurred
AccurateRip summary
Track 1 accurately ripped (confidence 2) [4182442E] (AR v2)
Track 2 accurately ripped (confidence 2) [5C8670A9] (AR v2)
Track 3 accurately ripped (confidence 2) [018F9E93] (AR v2)
Track 4 accurately ripped (confidence 2) [33D57C1E] (AR v2)
Track 5 accurately ripped (confidence 2) [BCC548C8] (AR v2)
Track 6 accurately ripped (confidence 2) [7EA20E62] (AR v2)
Track 7 accurately ripped (confidence 2) [88E9728A] (AR v2)
Track 8 accurately ripped (confidence 2) [438E74AD] (AR v2)
Track 9 accurately ripped (confidence 2) [43517F57] (AR v2)
Track 10 accurately ripped (confidence 2) [30CFC690] (AR v2)
Track 11 accurately ripped (confidence 2) [D4D7DCAB] (AR v2)
All tracks accurately ripped
End of status report
==== Log checksum 7B666442BBA73B1EFA8EFEC189B48EFE54ABE787BE61A205C4CD472B68BC2533 ====

Лог создания рипа: CD2

Exact Audio Copy V1.0 beta 3 from 29. August 2011
EAC extraction logfile from 27. August 2014, 9:10
Musica Fiata, Roland Wilson / Schutz - Symphoniae Sacrae I - CD2
Used drive : HL-DT-STDVDRAM GU70N Adapter: 0 ID: 0
Read mode : Secure
Utilize accurate stream : Yes
Defeat audio cache : Yes
Make use of C2 pointers : No
Read offset correction : 48
Overread into Lead-In and Lead-Out : No
Fill up missing offset samples with silence : Yes
Delete leading and trailing silent blocks : No
Null samples used in CRC calculations : Yes
Used interface : Native Win32 interface for Win NT & 2000
Used output format : User Defined Encoder
Selected bitrate : 128 kBit/s
Quality : High
Add ID3 tag : No
Command line compressor : C:\Program Files (x86)\Exact Audio Copy\Flac\flac.exe
Additional command line options : -V -8 -T "Date=%year%" -T "Genre=%genre%" %source%
TOC of the extracted CD
Track | Start | Length | Start sector | End sector
---------------------------------------------------------
1 | 0:00.00 | 6:33.37 | 0 | 29511
2 | 6:33.37 | 4:04.58 | 29512 | 47869
3 | 10:38.20 | 3:11.67 | 47870 | 62261
4 | 13:50.12 | 3:08.18 | 62262 | 76379
5 | 16:58.30 | 5:07.03 | 76380 | 99407
6 | 22:05.33 | 5:06.35 | 99408 | 122392
7 | 27:11.68 | 4:29.59 | 122393 | 142626
8 | 31:41.52 | 3:31.47 | 142627 | 158498
9 | 35:13.24 | 3:58.14 | 158499 | 176362
Range status and errors
Selected range
Filename C:\temp\Schutz - Symphoniae Sacrae I\Schutz - Symphoniae Sacrae I - CD2.wav
Peak level 97.0 %
Extraction speed 4.2 X
Range quality 100.0 %
Test CRC 8CCB16B0
Copy CRC 8CCB16B0
Copy OK
No errors occurred
AccurateRip summary
Track 1 accurately ripped (confidence 2) [C6630A76] (AR v2)
Track 2 accurately ripped (confidence 2) [77F9D2C0] (AR v2)
Track 3 accurately ripped (confidence 2) [51621136] (AR v2)
Track 4 accurately ripped (confidence 2) [C873B5CF] (AR v2)
Track 5 accurately ripped (confidence 2) [8C826065] (AR v2)
Track 6 accurately ripped (confidence 2) [32D7AD54] (AR v2)
Track 7 accurately ripped (confidence 2) [B647DEE2] (AR v2)
Track 8 accurately ripped (confidence 2) [0BA85C22] (AR v2)
Track 9 accurately ripped (confidence 2) [C3D0AF38] (AR v2)
All tracks accurately ripped
End of status report
==== Log checksum 216EC72655BB8BB4D673F3D5A5874C387DBF06C1241B9A8BEBB9E2091918C444 ====
[teatrix.ru].t20065.torrent 
Торрент: Зарегистрирован [ 2016-03-19 00:52 ] · 1A8CC193E3CFF1586787EE8AA4B09FF04304F3CB

Скачать .torrent

Скачать

35 KB

Статус: проверено
Скачан: 0 раз
Размер: 409 MB
terms.php



Быстрый ответ

Имя:

      
Для отправки сообщений необходимо включить JavaScript
Показать сообщения:    

Текущее время: 03-Дек 09:49

Часовой пояс: UTC + 3


Вы можете начинать темы
Вы можете отвечать на сообщения
Вы не можете редактировать свои сообщения
Вы не можете удалять свои сообщения
Вы не можете голосовать в опросах
Вы не можете прикреплять файлы к сообщениям
Вы можете скачивать файлы