Я видел "Жирафов" в Индии / I've Seen Giraffes in India (Ноам Пинхас / Noam Pinchas) [2010, Документальный, рок-музыка, HDTVRip]


Статистика раздачи [Обновить пиров]
Размер:  651 MB   |    Зарегистрирован:  8 месяцев 15 дней   |    Скачан:  0 раз

Полного источника не было: Никогда

Личеров:  6  [  0 KB/s  ]   Подробная статистика пиров
 
   
 
 
 

[Цитировать]

Я видел "Жирафов" в Индии / I've Seen Giraffes in India / Raiti girafot behodu
Дата/Год выпуска: 2010
Страна: Израиль
Жанр: Документальный, рок-музыка
Продолжительность: 01:14:09
Перевод: Субтитры
Доп. инфо о переводе: Синематип Лтд
Русские субтитры: есть
Формат субтитров: hardsub (неотключаемые)
Оригинальная аудиодорожка: иврит, английский
Режиссер: Ноам Пинхас, Ронен Михаэли
Описание: Израильская рок-группа "Жирафы" в Индии
Сэмпл: https://www.mediafire.com/?j477ss39lr9v186
качество: HDTVRip
формат: AVI
Видео: Xvid 624х352 16:9 25 кадров/сек 1089 Кбит/сек
Аудио: MP3 48 КГц 2 канала 128 Кбит/сек

MediaInfo

Общее
Полное имя : Raiti Jirafot Behodu 2010.avi
Формат : AVI
Формат/Информация : Audio Video Interleave
Размер файла : 651 Мбайт
Продолжительность : 1 ч. 14 м.
Режим общего битрейта : Переменный
Общий поток : 1227 Кбит/сек
Программа кодирования : VirtualDubMod 1.5.10.2 (build 2540/release)
Библиотека кодирования : VirtualDubMod build 2540/release
Видео
Идентификатор : 0
Формат : MPEG-4 Visual
Профиль формата : Advanced Simple@L5
Параметр BVOP формата : 2
Параметр QPel формата : Нет
Параметр GMC формата : Без точки перехода
Параметр матрицы формата : Default (H.263)
Идентификатор кодека : XVID
Идентификатор кодека/Подсказка : XviD
Продолжительность : 1 ч. 14 м.
Битрейт : 1089 Кбит/сек
Ширина : 624 пикселя
Высота : 352 пикселя
Соотношение сторон : 16:9
Частота кадров : 25,000 кадров/сек
Цветовое пространство : YUV
Субдискретизация насыщенности : 4:2:0
Битовая глубина : 8 бит
Тип развёртки : Прогрессивная
Метод сжатия : С потерями
Бит/(Пиксели*Кадры) : 0.198
Размер потока : 578 Мбайт (89%)
Библиотека кодирования : XviD 63
Аудио
Идентификатор : 1
Формат : MPEG Audio
Версия формата : Version 1
Профиль формата : Layer 3
Режим : Joint stereo
Расширение режима : MS Stereo
Идентификатор кодека : 55
Идентификатор кодека/Подсказка : MP3
Продолжительность : 1 ч. 14 м.
Вид битрейта : Переменный
Битрейт : 128 Кбит/сек
Каналы : 2 канала
Частота : 48,0 КГц
Метод сжатия : С потерями
Размер потока : 66,3 Мбайт (10%)
Выравнивание : Соединение по промежуткам
Продолжительность промежутка : 24 мс. (0,60 видеокадр)
Время предзагрузки промежутка : 503 мс.
Библиотека кодирования : LAME3.99r
Настройки программы : -m j -V 4 -q 2 -lowpass 17 --abr 128

Скриншоты

[teatrix.ru].t20066.torrent 
Торрент: Зарегистрирован [ 2016-03-19 00:52 ] · 59B65CAB3AE9D663A829524247C758FD18C18676

Скачать .torrent

Скачать

13 KB

Статус: проверено
Скачан: 0 раз
Размер: 651 MB
terms.php



Быстрый ответ

Имя:

      
Для отправки сообщений необходимо включить JavaScript
Показать сообщения:    

Текущее время: 03-Дек 03:22

Часовой пояс: UTC + 3


Вы можете начинать темы
Вы можете отвечать на сообщения
Вы не можете редактировать свои сообщения
Вы не можете удалять свои сообщения
Вы не можете голосовать в опросах
Вы не можете прикреплять файлы к сообщениям
Вы можете скачивать файлы