АББА. Даба Ду / ABBA. Dabba Dooo (Леонард Еек / Leonard Eek) [1977, документальный, биографии, музыка, DVDRip]


Статистика раздачи [Обновить пиров]
Размер:  746 MB   |    Зарегистрирован:  8 месяцев 15 дней   |    Скачан:  0 раз

Полного источника не было: Никогда

Личеров:  18  [  0 KB/s  ]   Подробная статистика пиров
 
   
 
 
 

[Цитировать]

АББА. Даба Ду / ABBA. Dabba Dooo
Дата/Год выпуска: 1977
Страна: Швеция
Жанр: документальный, биографии, музыка
Продолжительность: 00:57:01
Перевод: Профессиональный (двухголосый закадровый)
Доп. инфо о переводе: тв Культура
Режиссер: Леонард Еек / Leonard Eek
Описание: Музыкально-документальный фильм об истории создания легендарной и супер-популярной поп-группы "АББА". Интервью с музыкантами, фрагменты композиций, принесших известность группы, исторические справки о каждом из участников - все это послужило основой картины.
Доп. информация: Русская звуковая дорожка, получена сведением русского перевода (моно), который используется только там, где это необходимо и более качественного звука с DVD.
DVB с исходным монофоническим переводом тут
ABBA-DABBA-DOOO!! в максимально возможном качестве без пережатия звука и изображения: DVD
Отличия от альтернативных раздач http://teatrix.ru/viewtopic.php?t=4906334 и http://teatrix.ru/viewtopic.php?t=4907610 : 1)отсутствие в видеоряде логотипов и характерных дефектов старой видеозаписи 2) стереозвук в музыкальных номерах
Сэмпл: http://sendfile.su/1071770
Качество: DVDRip
формат: AVI
Видео: Xvid 624x480 29.97fps 1625 Kbps
Аудио: MP3 48000Hz stereo 192kbps

MediaInfo

Format/Info                    : Audio Video Interleave
File size : 746 MiB
Duration : 57mn 0s
Overall bit rate : 1 829 Kbps
Writing application : VirtualDubMod 1.5.10.3 | www.virtualdub-fr.org || (build 2550/release)
Writing library : VirtualDubMod build 2550/release
Video
ID : 0
Format : MPEG-4 Visual
Format profile : Advanced Simple@L5
Format settings, BVOP : Yes
Format settings, QPel : No
Format settings, GMC : No warppoints
Format settings, Matrix : Default (MPEG)
Codec ID : XVID
Codec ID/Hint : XviD
Duration : 57mn 0s
Bit rate : 1 625 Kbps
Width : 624 pixels
Height : 480 pixels
Display aspect ratio : 4:3
Frame rate : 29.970 fps
Color space : YUV
Chroma subsampling : 4:2:0
Bit depth : 8 bits
Scan type : Progressive
Compression mode : Lossy
Bits/(Pixel*Frame) : 0.181
Stream size : 663 MiB (89%)
Writing library : XviD 1.2.1 (UTC 2008-12-04)
Audio
ID : 1
Format : MPEG Audio
Format version : Version 1
Format profile : Layer 3
Codec ID : 55
Codec ID/Hint : MP3
Duration : 57mn 0s
Bit rate mode : Constant
Bit rate : 192 Kbps
Channel(s) : 2 channels
Sampling rate : 48.0 KHz
Compression mode : Lossy
Stream size : 78.3 MiB (10%)
Alignment : Aligned on interleaves
Interleave, duration : 33 ms (1.00 video frame)
Interleave, preload duration : 504 ms
Writing library : LAME3.99r
Encoding settings : -m s -V 4 -q 0 -lowpass 18.6 -b 192

Скриншоты

[teatrix.ru].t20067.torrent 
Торрент: Зарегистрирован [ 2016-03-19 00:51 ] · 16CD3F352120BF40B59E86E4B6AAE7900E52DDF9

Скачать .torrent

Скачать

15 KB

Статус: проверено
Скачан: 0 раз
Размер: 746 MB
terms.php



Быстрый ответ

Имя:

      
Для отправки сообщений необходимо включить JavaScript
Показать сообщения:    

Текущее время: 03-Дек 22:46

Часовой пояс: UTC + 3


Вы можете начинать темы
Вы можете отвечать на сообщения
Вы не можете редактировать свои сообщения
Вы не можете удалять свои сообщения
Вы не можете голосовать в опросах
Вы не можете прикреплять файлы к сообщениям
Вы можете скачивать файлы