Валентина Теличкина: Нефертити из Провинции (Георгий Ананов) [10.01.2015, Документальный, HDTVRip]


Статистика раздачи [Обновить пиров]
Размер:  760 MB   |    Зарегистрирован:  8 месяцев 19 дней   |    Скачан:  0 раз

Полного источника не было: Никогда

Личеров:  18  [  0 KB/s  ]   Подробная статистика пиров
 
   
 
 
 

[Цитировать]

Валентина Теличкина: Нефертити из Провинции- Дата выпуска: 10.01.2015
Страна: Россия
Телеканал: Первый Канал HD
Жанр: Документальный
Продолжительность: 0:49:44
Режиссер: Георгий Ананов-Описание: У актрисы Валентины Теличкиной на счету более 50 ролей. Она начала свою карьеру еще студенткой второго курса ВГИКа и сразу поразила всех нестандартной внешностью и слегка замедленной манерой говорить.-Автор рипа: lrn
Сэмпл: Яндекс.Диск-Качество: HDTVRip
Формат: AVI
Видео: 720x400 (16:9), 25,000 fps, XviD, ~2000 kbps avg, ~0.274 bit/pixel
Аудио: 48 kHz, MPEG Audio Layer 3, 2/0 (L,R), ~128.00 kbps avg-

MediaInfo

General
Complete name : E:\uTorrent.Temp\Temp\Valentina.Telichkina.Nefertiti.iz.Provincii.HDTVRip.400p.XviD-lrn.avi
Format : AVI
Format/Info : Audio Video Interleave
File size : 760 MiB
Duration : 49mn 44s
Overall bit rate : 2 138 Kbps
Writing application : VirtualDubMod 1.5.10.3 (build 2550/release)
Writing library : VirtualDubMod build 2550/release
Video
ID : 0
Format : MPEG-4 Visual
Format profile : Advanced Simple@L5
Format settings, BVOP : 2
Format settings, QPel : No
Format settings, GMC : No warppoints
Format settings, Matrix : Default (MPEG)
Codec ID : XVID
Codec ID/Hint : XviD
Duration : 49mn 44s
Bit rate : 2 000 Kbps
Width : 720 pixels
Height : 400 pixels
Display aspect ratio : 16:9
Frame rate : 25.000 fps
Color space : YUV
Chroma subsampling : 4:2:0
Bit depth : 8 bits
Scan type : Progressive
Compression mode : Lossy
Bits/(Pixel*Frame) : 0.278
Stream size : 711 MiB (94%)
Writing library : XviD 1.2.1 (UTC 2008-12-04)
Audio
ID : 1
Format : MPEG Audio
Format version : Version 1
Format profile : Layer 3
Codec ID : 55
Codec ID/Hint : MP3
Duration : 49mn 44s
Bit rate mode : Constant
Bit rate : 128 Kbps
Channel(s) : 2 channels
Sampling rate : 48.0 KHz
Compression mode : Lossy
Stream size : 45.5 MiB (6%)
Alignment : Aligned on interleaves
Interleave, duration : 40 ms (1.00 video frame)
Interleave, preload duratio : 504 ms
Writing library : LAME3.99r
Encoding settings : -m s -V 4 -q 2 -lowpass 17 -b 128
-

Скриншоты

-
[teatrix.ru].t20068.torrent 
Торрент: Зарегистрирован [ 2016-03-19 00:50 ] · A48F48D5E1387D3A57DEF09C9A5ED791730D1BC0

Скачать .torrent

Скачать

15 KB

Статус: проверено
Скачан: 0 раз
Размер: 760 MB
terms.php



Быстрый ответ

Имя:

      
Для отправки сообщений необходимо включить JavaScript
Показать сообщения:    

Текущее время: 07-Дек 15:28

Часовой пояс: UTC + 3


Вы можете начинать темы
Вы можете отвечать на сообщения
Вы не можете редактировать свои сообщения
Вы не можете удалять свои сообщения
Вы не можете голосовать в опросах
Вы не можете прикреплять файлы к сообщениям
Вы можете скачивать файлы