Sсоtt Sоnnоn - 6 Dеgrее Flоw [2014, фитнес, DVDRip, ENG] (Видеоурок)


Статистика раздачи [Обновить пиров]
Размер:  9.51 GB   |    Зарегистрирован:  8 месяцев 15 дней   |    Скачан:  3 раза

Полного источника не было: 19 часов

Личеров:  9  [  0 KB/s  ]   Подробная статистика пиров
 
   
 
 
 

[Цитировать]

Sсоtt Sоnnоn - 6 Dеgrее Flоw
Страна: США
Тематика: фитнес
Тип раздаваемого материала: Видеоурок
Продолжительность: 15:22:11
Год выпуска: 2014
Язык: Английский
Перевод: Отсутствует
Описание:
6 Dеgrее Flоw от Скотта Соннона является оцифрованной программой обучения по тренировке тела для людей, которые хотят сжечь лишний жир, нарастить мышцы, улучшить свою физическую форму и искать (находиться) в потоке в обучении. Программа разработана таким образом, чтобы она могла быть выполнена где угодно, в любое время, и не требовала никакого дополнительного оборудования. Вы можете просматривать программу 6 Dеgrее Flоw на своем компьютере, ноутбуке, смартфоне, телевизоре или планшете, что очень удобно.
Что Вы фактически получаете, когда приобретаете программу Sсоtt Sоnnоn - 6 Dеgrее Flоw? Данный набор включает в себя несколько лаконичных, ориентированных на действие руководств (в формате PDF), подборку видео с подробными инструкциями по выполнению упражнений (в универсальном формате MP4), подборку видео по выполнению тренировочных программ, различные бонусные дополнения, а также многое другое
-
Sсоtt Sоnnоn - 6 Dеgrее Flоw is a digital bodyweight training program for people who want to burn fat, build muscle, improve their fitness, and seek after flow in their training. It was designed so that it can be performed anywhere, anytime, and requires no equipment. You can view it on your computer, laptop, smart phone or TV, or tablet, making it very portable.
Now, when it comes to what you actually get when you buy Sсоtt Sоnnоn - 6 Dеgrее Flоw, the package includes a handful of succinct, action-oriented manuals (in PDF format), a huge collection of exercise instructional videos (universal MP4 format), a handful of follow-along workout videos, and a ton of bonuses, too (more on that later).
За перевод описания спасибо уходит к Monah1977
Качество: DVDRip
Формат: MP4
Видео кодек: AVC
Аудио кодек: AAC
Видео: AVC at 841 Kbps 640 x 360 (1.778) at 14.985 fps
Аудио: AAC at 103 Kbps 2 channels, 48.0 KHz

Скриншоты

MediaInfo

General
Complete name : Scott Sonnon - 6 Degree Flow\1 - Main Package\03 - Pitch & Surge Video Tutorials\Cooldown Shoulder Bridge.mp4
Format : MPEG-4
Format profile : Base Media / Version 2
Codec ID : mp42
File size : 8.13 MiB
Duration : 1mn 11s
Overall bit rate : 948 Kbps
Encoded date : UTC 2014-05-07 21:08:52
Tagged date : UTC 2014-05-07 21:09:10
Video
ID : 1
Format : AVC
Format/Info : Advanced Video Codec
Format profile : Main@L2.2
Format settings, CABAC : No
Format settings, ReFrames : 2 frames
Codec ID : avc1
Codec ID/Info : Advanced Video Coding
Duration : 1mn 11s
Bit rate mode : Variable
Bit rate : 841 Kbps
Width : 640 pixels
Height : 360 pixels
Display aspect ratio : 16:9
Frame rate mode : Constant
Frame rate : 14.985 fps
Color space : YUV
Chroma subsampling : 4:2:0
Bit depth : 8 bits
Scan type : Progressive
Bits/(Pixel*Frame) : 0.244
Stream size : 7.21 MiB (89%)
Language : English
Encoded date : UTC 2014-05-07 21:08:52
Tagged date : UTC 2014-05-07 21:09:10
Color primaries : BT.601-6 525, BT.1358 525, BT.1700 NTSC, SMPTE 170M
Transfer characteristics : BT.709-5, BT.1361
Matrix coefficients : BT.601-6 525, BT.1358 525, BT.1700 NTSC, SMPTE 170M
Audio
ID : 2
Format : AAC
Format/Info : Advanced Audio Codec
Format profile : LC
Codec ID : 40
Duration : 1mn 11s
Bit rate mode : Constant
Bit rate : 103 Kbps
Nominal bit rate : 128 Kbps
Channel(s) : 2 channels
Channel positions : Front: L R
Sampling rate : 48.0 KHz
Compression mode : Lossy
Stream size : 904 KiB (11%)
Language : English
Encoded date : UTC 2014-05-07 21:08:53
Tagged date : UTC 2014-05-07 21:09:10
[teatrix.ru].t20072.torrent 
Торрент: Зарегистрирован [ 2016-03-19 00:52 ] · DAAD684BB1F1E723D30F9AF18BA867EDED3D2A1C

Скачать .torrent

Скачать

46 KB

Статус: проверено
Скачан: 3 раз
Размер: 9.51 GB
terms.php



Быстрый ответ

Имя:

      
Для отправки сообщений необходимо включить JavaScript
Показать сообщения:    

Текущее время: 03-Дек 09:45

Часовой пояс: UTC + 3


Вы можете начинать темы
Вы можете отвечать на сообщения
Вы не можете редактировать свои сообщения
Вы не можете удалять свои сообщения
Вы не можете голосовать в опросах
Вы не можете прикреплять файлы к сообщениям
Вы можете скачивать файлы