(Classical) [24/48] [LP] Hugo Lepnurm - Organs Of Estonia (21) - 1985, FLAC (tracks+.cue)


Статистика раздачи [Обновить пиров]
Размер:  420 MB   |    Зарегистрирован:  8 месяцев 20 дней   |    Скачан:  0 раз

Полного источника не было: Никогда

Личеров:  38  [  0 KB/s  ]   Подробная статистика пиров
 
   
 
 
 

[Цитировать]

Organs Of Estonia (21) - Hugo Lepnurm
Жанр: Classical
Год выпуска: 1985
Лейбл: Melodya (VSG)
Страна-производитель: USSR
Аудио кодек: FLAC
Тип рипа: tracks+.cue
Формат записи: 32/192
Формат раздачи: 24/48
Продолжительность: 41.44 min
Треклист:
Side one:
J. S. Bach
01. Chorale Prelude ''Es ist uns kommen her'', BWV 638
02. Chorale Prelude ''O Mensch, bewein'dein Sunde gros'', BWV 622
J. Stanley
03. Voluntary in F major
04. Voluntary in C major
M. Reger
05. Toccata, Op.59 No. 5 \ Fugue, Op.59 No. 6
Side two;
A. Marguste
06. Fantasia and Fugue
E. Arro
07. Basso ostinato
C. Franck
08. Finale In B flat major, Op. 21
Источник оцифровки: автором раздачи
Код класса состояния винила: NM
Устройство воспроизведения: Электроника ЭП 017С
Головка звукоснимателя: Audio-Technica AT95
Предварительный усилитель: Бриг-001
АЦП: VIA HD audio device
Программа-оцифровщик: Izotope RX 4 Advanced
Обработка: Manual

Спектр+АЧХ+Уровень записи

DR=11

foobar2000 1.1.10 / Dynamic Range Meter 1.1.1
log date: 2015-01-10 20:42:57
--------------------------------------------------------------------------------
Analyzed: Hugo Lepnurm / Organs Of Estonia (21)
--------------------------------------------------------------------------------
DR Peak RMS Duration Track
--------------------------------------------------------------------------------
DR10 -8.38 dB -22.74 dB 1:11 ?-Chorale Prelude ''Es ist uns kommen her'', BWV 638
DR9 -9.33 dB -22.29 dB 4:23 ?-Chorale Prelude ''O Mensch, bewein'dein Sunde gros'', BWV 622
DR11 -2.97 dB -19.35 dB 3:06 ?-Voluntary in F major
DR10 -7.63 dB -21.73 dB 4:24 ?-Voluntary in C major
DR12 -2.58 dB -19.10 dB 7:25 ?-Toccata, Op.59 No. 5 \ Fugue, Op.59 No. 6
DR12 -0.62 dB -18.47 dB 6:43 ?-Fantasia and Fugue
DR11 -8.87 dB -24.61 dB 3:58 ?-Basso ostinato
DR12 -0.12 dB -17.19 dB 10:34 ?-Finale In B flat major, Op. 21
--------------------------------------------------------------------------------
Number of tracks: 8
Official DR value: DR11
Samplerate: 48000 Hz
Channels: 2
Bits per sample: 24
Bitrate: 1390 kbps
Codec: FLAC
================================================================================

Back & Disc

[teatrix.ru].t20073.torrent 
Торрент: Зарегистрирован [ 2016-03-19 00:52 ] · E995C5CED2107795C3177EB6A5AD2BA1FF177329

Скачать .torrent

Скачать

18 KB

Статус: проверено
Скачан: 0 раз
Размер: 420 MB
terms.php



Быстрый ответ

Имя:

      
Для отправки сообщений необходимо включить JavaScript
Показать сообщения:    

Текущее время: 08-Дек 01:21

Часовой пояс: UTC + 3


Вы можете начинать темы
Вы можете отвечать на сообщения
Вы не можете редактировать свои сообщения
Вы не можете удалять свои сообщения
Вы не можете голосовать в опросах
Вы не можете прикреплять файлы к сообщениям
Вы можете скачивать файлы