(Classical) J.S. Bach: Easter Cantatas - Ton Koopman, Amsterdam Baroque Orchestra & Choir - 2CD - 2005, FLAC (image+.cue) lossless


Статистика раздачи [Обновить пиров]
Размер:  658 MB   |    Зарегистрирован:  8 месяцев 19 дней   |    Скачан:  0 раз

Полного источника не было: Никогда

Личеров:  26  [  0 KB/s  ]   Подробная статистика пиров
 
   
 
 
 

[Цитировать]

J.S. Bach: Easter Cantatas - Ton Koopman, Amsterdam Baroque Orchestra & Choir.
Жанр: Classical, Baroque, Choral
Страна-производитель диска: Recorded at Waalse Kerk, Amsterdam, Holland
Год издания диска: 2005
Издатель (лейбл): Challenge Classics
Номер по каталогу: Antoine Marchand CC-72231
Дата записи: 1994-2002
Аудиокодек: FLAC
Тип рипа: image+.cue
Битрейт аудио: lossless
Продолжительность: 2-CD / TT: 151:00
Источник: собственный XLD-AccurateRip
Наличие сканов в содержимом раздачи: нет

Треклист:

CD 1:
“Himmelskðnig, sei willkommen” (Concerto) BWV 182 (Tracks 1–8)
“Christ lag in Todesbanden” BWV 4 (Tracks 9-16)
“Der Himmel lacht! die Erde jubilieret” BWV 31 (Tracks 17-25)
“Bleib bei uns, denn es will Abend werden” BWV 6 (Tracks 26-28) - Beginning
CD 2:
“Bleib bei uns, denn es will Abend warden” BWV 6 (Tracks 1-3) - Conclusion
“Erfreut euch, ihr Herzen” BWV 66 (Tracks 4-9)
“Der Friede sei mit dir” BWV 158 (Tracks 10-13)
“Ein Herz, das seinen Jesum lebend weiß” BWV 134 (Tracks 14-19)
“Ich lebe, mein Herz, zudeinem Ergötzen” BWV 145 (Tracks 20-24)

Исполнители:

The Amsterdam Baroque Orchestra & Choir
Soloists:
Sopranos: Barbara Schlick, Sibylla Rubens, Caroline Stam
Altos: Kal Wessel, Bogna Bartosz, Bernhard Landauer, Michael Chance
Tenors: Guy de Mey, Jorg Durmuller, Christoph Pregardien, Paul Agnew
Bass: Klaus Mertens.

Лог создания рипа (.LOG):

Easter Cantatas - Koopman - CD1.log:

X Lossless Decoder version 20141129 (148.1)
XLD extraction logfile from 2015-01-11 07:32:15 +0200
J. S. Bach / Easter Cantatas - Koopman - CD1
Used drive : MATSHITA DVD-R UJ-875 (revision DA09)
Media type : Pressed CD
Ripper mode : CDParanoia III 10.2
Disable audio cache : OK for the drive with a cache less than 2750KiB
Make use of C2 pointers : NO
Read offset correction : 102
Max retry count : 20
Gap status : Analyzed, Appended
TOC of the extracted CD
Track | Start | Length | Start sector | End sector
---------------------------------------------------------
1 | 00:00:00 | 02:01:30 | 0 | 9104
2 | 02:01:30 | 03:00:06 | 9105 | 22610
3 | 05:01:36 | 00:31:04 | 22611 | 24939
4 | 05:32:40 | 02:34:43 | 24940 | 36532
5 | 08:07:08 | 06:36:54 | 36533 | 66286
6 | 14:43:62 | 03:39:34 | 66287 | 82745
7 | 18:23:21 | 02:29:71 | 82746 | 93991
8 | 20:53:17 | 03:53:09 | 93992 | 111475
9 | 24:46:26 | 01:09:74 | 111476 | 116724
10 | 25:56:25 | 03:42:38 | 116725 | 133412
11 | 29:38:63 | 04:09:60 | 133413 | 152147
12 | 33:48:48 | 02:03:03 | 152148 | 161375
13 | 35:51:51 | 02:07:70 | 161376 | 170970
14 | 37:59:46 | 02:54:73 | 170971 | 184093
15 | 40:54:44 | 01:57:18 | 184094 | 192886
16 | 42:51:62 | 01:19:53 | 192887 | 198864
17 | 44:11:40 | 02:30:31 | 198865 | 210145
18 | 46:41:71 | 03:35:73 | 210146 | 226343
19 | 50:17:69 | 02:04:33 | 226344 | 235676
20 | 52:22:27 | 03:24:46 | 235677 | 251022
21 | 55:46:73 | 01:06:57 | 251023 | 256029
22 | 56:53:55 | 02:18:08 | 256030 | 266387
23 | 59:11:63 | 00:50:04 | 266388 | 270141
24 | 60:01:67 | 04:04:18 | 270142 | 288459
25 | 64:06:10 | 01:08:29 | 288460 | 293588
26 | 65:14:39 | 06:09:45 | 293589 | 321308
27 | 71:24:09 | 03:09:08 | 321309 | 335491
28 | 74:33:17 | 03:46:18 | 335492 | 352459
List of alternate offset correction values
# | Absolute | Relative | Confidence
------------------------------------------
1 | 766 | 664 | 3
AccurateRip Summary (DiscID: 004d4a0d-0600fa93-91125b1c)
Track 01 : OK (v1, confidence 2/5)
Track 02 : OK (v1+v2, confidence 4/7)
Track 03 : OK (v1+v2, confidence 4/7)
Track 04 : OK (v1+v2, confidence 4/7)
Track 05 : OK (v1+v2, confidence 4/7)
Track 06 : OK (v1+v2, confidence 4/7)
Track 07 : OK (v1+v2, confidence 4/7)
Track 08 : OK (v1+v2, confidence 4/7)
Track 09 : OK (v1+v2, confidence 4/7)
Track 10 : OK (v1+v2, confidence 4/7)
Track 11 : OK (v1+v2, confidence 4/7)
Track 12 : OK (v1+v2, confidence 4/7)
Track 13 : OK (v1+v2, confidence 4/7)
Track 14 : OK (v1+v2, confidence 4/7)
Track 15 : OK (v1+v2, confidence 4/7)
Track 16 : OK (v1+v2, confidence 4/7)
Track 17 : OK (v1+v2, confidence 4/7)
Track 18 : OK (v1+v2, confidence 4/7)
Track 19 : OK (v1+v2, confidence 4/7)
Track 20 : OK (v1+v2, confidence 4/7)
Track 21 : OK (v1+v2, confidence 4/7)
Track 22 : OK (v1+v2, confidence 4/7)
Track 23 : OK (v1+v2, confidence 4/7)
Track 24 : OK (v1+v2, confidence 4/7)
Track 25 : OK (v1+v2, confidence 4/7)
Track 26 : OK (v1+v2, confidence 4/7)
Track 27 : OK (v1+v2, confidence 4/7)
Track 28 : OK (v1+v2, confidence 4/7)
->All tracks accurately ripped.
All Tracks
Filename : /Users/andrey/Desktop/bach easter cantatas koopman/Easter Cantatas - Koopman - CD1.aiff
CRC32 hash (test run) : 5B79DB0F
CRC32 hash : 5B79DB0F
CRC32 hash (skip zero) : B54312F1
Statistics
Read error : 0
Skipped (treated as error) : 0
Edge jitter error (maybe fixed) : 0
Atom jitter error (maybe fixed) : 0
Drift error (maybe fixed) : 0
Dropped bytes error (maybe fixed) : 0
Duplicated bytes error (maybe fixed) : 0
Inconsistency in error sectors : 0
Track 01
Pre-gap length : 00:02:00
CRC32 hash (test run) : 33DD0FD6
CRC32 hash : 33DD0FD6
CRC32 hash (skip zero) : EF80974B
AccurateRip v1 signature : 6E8E08E7
AccurateRip v2 signature : 3E3D47C2
->Accurately ripped (v1, confidence 2/5)
Statistics
Read error : 0
Skipped (treated as error) : 0
Edge jitter error (maybe fixed) : 0
Atom jitter error (maybe fixed) : 0
Drift error (maybe fixed) : 0
Dropped bytes error (maybe fixed) : 0
Duplicated bytes error (maybe fixed) : 0
Inconsistency in error sectors : 0
Track 02
CRC32 hash (test run) : 69BDD718
CRC32 hash : 69BDD718
CRC32 hash (skip zero) : 6D4DA651
AccurateRip v1 signature : 6AEB5E9A
AccurateRip v2 signature : 3898555C
->Accurately ripped (v1+v2, confidence 2+2/7)
Statistics
Read error : 0
Skipped (treated as error) : 0
Edge jitter error (maybe fixed) : 0
Atom jitter error (maybe fixed) : 0
Drift error (maybe fixed) : 0
Dropped bytes error (maybe fixed) : 0
Duplicated bytes error (maybe fixed) : 0
Inconsistency in error sectors : 0
Track 03
CRC32 hash (test run) : CC37D877
CRC32 hash : CC37D877
CRC32 hash (skip zero) : 3DA828AD
AccurateRip v1 signature : 0E3D9B7E
AccurateRip v2 signature : 965F56E4
->Accurately ripped (v1+v2, confidence 2+2/7)
Statistics
Read error : 0
Skipped (treated as error) : 0
Edge jitter error (maybe fixed) : 0
Atom jitter error (maybe fixed) : 0
Drift error (maybe fixed) : 0
Dropped bytes error (maybe fixed) : 0
Duplicated bytes error (maybe fixed) : 0
Inconsistency in error sectors : 0
Track 04
CRC32 hash (test run) : C61504F7
CRC32 hash : C61504F7
CRC32 hash (skip zero) : 9BC16334
AccurateRip v1 signature : 71E891B1
AccurateRip v2 signature : F7188F77
->Accurately ripped (v1+v2, confidence 2+2/7)
Statistics
Read error : 0
Skipped (treated as error) : 0
Edge jitter error (maybe fixed) : 0
Atom jitter error (maybe fixed) : 0
Drift error (maybe fixed) : 0
Dropped bytes error (maybe fixed) : 0
Duplicated bytes error (maybe fixed) : 0
Inconsistency in error sectors : 0
Track 05
CRC32 hash (test run) : 06929BE1
CRC32 hash : 06929BE1
CRC32 hash (skip zero) : BA91C405
AccurateRip v1 signature : 8174A9C7
AccurateRip v2 signature : A03D2C1E
->Accurately ripped (v1+v2, confidence 2+2/7)
Statistics
Read error : 0
Skipped (treated as error) : 0
Edge jitter error (maybe fixed) : 0
Atom jitter error (maybe fixed) : 0
Drift error (maybe fixed) : 0
Dropped bytes error (maybe fixed) : 0
Duplicated bytes error (maybe fixed) : 0
Inconsistency in error sectors : 0
Track 06
CRC32 hash (test run) : B219D117
CRC32 hash : B219D117
CRC32 hash (skip zero) : 993C297B
AccurateRip v1 signature : 541DB496
AccurateRip v2 signature : 15948409
->Accurately ripped (v1+v2, confidence 2+2/7)
Statistics
Read error : 0
Skipped (treated as error) : 0
Edge jitter error (maybe fixed) : 0
Atom jitter error (maybe fixed) : 0
Drift error (maybe fixed) : 0
Dropped bytes error (maybe fixed) : 0
Duplicated bytes error (maybe fixed) : 0
Inconsistency in error sectors : 0
Track 07
CRC32 hash (test run) : 12A1526E
CRC32 hash : 12A1526E
CRC32 hash (skip zero) : 292B6533
AccurateRip v1 signature : EE4CC486
AccurateRip v2 signature : 2D6416D1
->Accurately ripped (v1+v2, confidence 2+2/7)
Statistics
Read error : 0
Skipped (treated as error) : 0
Edge jitter error (maybe fixed) : 0
Atom jitter error (maybe fixed) : 0
Drift error (maybe fixed) : 0
Dropped bytes error (maybe fixed) : 0
Duplicated bytes error (maybe fixed) : 0
Inconsistency in error sectors : 0
Track 08
CRC32 hash (test run) : BDABA0C0
CRC32 hash : BDABA0C0
CRC32 hash (skip zero) : 5C23A8D8
AccurateRip v1 signature : 42599B87
AccurateRip v2 signature : 07E94183
->Accurately ripped (v1+v2, confidence 2+2/7)
Statistics
Read error : 0
Skipped (treated as error) : 0
Edge jitter error (maybe fixed) : 0
Atom jitter error (maybe fixed) : 0
Drift error (maybe fixed) : 0
Dropped bytes error (maybe fixed) : 0
Duplicated bytes error (maybe fixed) : 0
Inconsistency in error sectors : 0
Track 09
CRC32 hash (test run) : C48839B0
CRC32 hash : C48839B0
CRC32 hash (skip zero) : 7888A0A6
AccurateRip v1 signature : E165530D
AccurateRip v2 signature : 700974BD
->Accurately ripped (v1+v2, confidence 2+2/7)
Statistics
Read error : 0
Skipped (treated as error) : 0
Edge jitter error (maybe fixed) : 0
Atom jitter error (maybe fixed) : 0
Drift error (maybe fixed) : 0
Dropped bytes error (maybe fixed) : 0
Duplicated bytes error (maybe fixed) : 0
Inconsistency in error sectors : 0
Track 10
CRC32 hash (test run) : 61E27107
CRC32 hash : 61E27107
CRC32 hash (skip zero) : 8A7876A2
AccurateRip v1 signature : 3CBF365F
AccurateRip v2 signature : 95A51BFE
->Accurately ripped (v1+v2, confidence 2+2/7)
Statistics
Read error : 0
Skipped (treated as error) : 0
Edge jitter error (maybe fixed) : 0
Atom jitter error (maybe fixed) : 0
Drift error (maybe fixed) : 0
Dropped bytes error (maybe fixed) : 0
Duplicated bytes error (maybe fixed) : 0
Inconsistency in error sectors : 0
Track 11
CRC32 hash (test run) : 8EB47D63
CRC32 hash : 8EB47D63
CRC32 hash (skip zero) : F233F721
AccurateRip v1 signature : 837DC397
AccurateRip v2 signature : B882B458
->Accurately ripped (v1+v2, confidence 2+2/7)
Statistics
Read error : 0
Skipped (treated as error) : 0
Edge jitter error (maybe fixed) : 0
Atom jitter error (maybe fixed) : 0
Drift error (maybe fixed) : 0
Dropped bytes error (maybe fixed) : 0
Duplicated bytes error (maybe fixed) : 0
Inconsistency in error sectors : 0
Track 12
CRC32 hash (test run) : BC60B81D
CRC32 hash : BC60B81D
CRC32 hash (skip zero) : A1834FAB
AccurateRip v1 signature : 652B6DC4
AccurateRip v2 signature : B73D93D1
->Accurately ripped (v1+v2, confidence 2+2/7)
Statistics
Read error : 0
Skipped (treated as error) : 0
Edge jitter error (maybe fixed) : 0
Atom jitter error (maybe fixed) : 0
Drift error (maybe fixed) : 0
Dropped bytes error (maybe fixed) : 0
Duplicated bytes error (maybe fixed) : 0
Inconsistency in error sectors : 0
Track 13
CRC32 hash (test run) : F24A1E18
CRC32 hash : F24A1E18
CRC32 hash (skip zero) : 7E8AFCE5
AccurateRip v1 signature : AE26255F
AccurateRip v2 signature : 3FDB7FAE
->Accurately ripped (v1+v2, confidence 2+2/7)
Statistics
Read error : 0
Skipped (treated as error) : 0
Edge jitter error (maybe fixed) : 0
Atom jitter error (maybe fixed) : 0
Drift error (maybe fixed) : 0
Dropped bytes error (maybe fixed) : 0
Duplicated bytes error (maybe fixed) : 0
Inconsistency in error sectors : 0
Track 14
CRC32 hash (test run) : B61D89C9
CRC32 hash : B61D89C9
CRC32 hash (skip zero) : 849871BA
AccurateRip v1 signature : A3881D75
AccurateRip v2 signature : A726379E
->Accurately ripped (v1+v2, confidence 2+2/7)
Statistics
Read error : 0
Skipped (treated as error) : 0
Edge jitter error (maybe fixed) : 0
Atom jitter error (maybe fixed) : 0
Drift error (maybe fixed) : 0
Dropped bytes error (maybe fixed) : 0
Duplicated bytes error (maybe fixed) : 0
Inconsistency in error sectors : 0
Track 15
CRC32 hash (test run) : AA45A116
CRC32 hash : AA45A116
CRC32 hash (skip zero) : 37670BAD
AccurateRip v1 signature : 1B3E543A
AccurateRip v2 signature : 6720563C
->Accurately ripped (v1+v2, confidence 2+2/7)
Statistics
Read error : 0
Skipped (treated as error) : 0
Edge jitter error (maybe fixed) : 0
Atom jitter error (maybe fixed) : 0
Drift error (maybe fixed) : 0
Dropped bytes error (maybe fixed) : 0
Duplicated bytes error (maybe fixed) : 0
Inconsistency in error sectors : 0
Track 16
CRC32 hash (test run) : FB0B552E
CRC32 hash : FB0B552E
CRC32 hash (skip zero) : E763E294
AccurateRip v1 signature : F94240E8
AccurateRip v2 signature : 1DA6DDFE
->Accurately ripped (v1+v2, confidence 2+2/7)
Statistics
Read error : 0
Skipped (treated as error) : 0
Edge jitter error (maybe fixed) : 0
Atom jitter error (maybe fixed) : 0
Drift error (maybe fixed) : 0
Dropped bytes error (maybe fixed) : 0
Duplicated bytes error (maybe fixed) : 0
Inconsistency in error sectors : 0
Track 17
CRC32 hash (test run) : 5917FDFB
CRC32 hash : 5917FDFB
CRC32 hash (skip zero) : 19C85974
AccurateRip v1 signature : 3C190E17
AccurateRip v2 signature : E0E5970E
->Accurately ripped (v1+v2, confidence 2+2/7)
Statistics
Read error : 0
Skipped (treated as error) : 0
Edge jitter error (maybe fixed) : 0
Atom jitter error (maybe fixed) : 0
Drift error (maybe fixed) : 0
Dropped bytes error (maybe fixed) : 0
Duplicated bytes error (maybe fixed) : 0
Inconsistency in error sectors : 0
Track 18
CRC32 hash (test run) : 6468E547
CRC32 hash : 6468E547
CRC32 hash (skip zero) : 08A248E0
AccurateRip v1 signature : C6DB5D14
AccurateRip v2 signature : 9A7B9D7F
->Accurately ripped (v1+v2, confidence 2+2/7)
Statistics
Read error : 0
Skipped (treated as error) : 0
Edge jitter error (maybe fixed) : 0
Atom jitter error (maybe fixed) : 0
Drift error (maybe fixed) : 0
Dropped bytes error (maybe fixed) : 0
Duplicated bytes error (maybe fixed) : 0
Inconsistency in error sectors : 0
Track 19
CRC32 hash (test run) : 473C3BA4
CRC32 hash : 473C3BA4
CRC32 hash (skip zero) : 635362C3
AccurateRip v1 signature : 8415A99F
AccurateRip v2 signature : 5D0511BA
->Accurately ripped (v1+v2, confidence 2+2/7)
Statistics
Read error : 0
Skipped (treated as error) : 0
Edge jitter error (maybe fixed) : 0
Atom jitter error (maybe fixed) : 0
Drift error (maybe fixed) : 0
Dropped bytes error (maybe fixed) : 0
Duplicated bytes error (maybe fixed) : 0
Inconsistency in error sectors : 0
Track 20
CRC32 hash (test run) : 3A386F2D
CRC32 hash : 3A386F2D
CRC32 hash (skip zero) : CBA93C57
AccurateRip v1 signature : C7D26713
AccurateRip v2 signature : 57E70233
->Accurately ripped (v1+v2, confidence 2+2/7)
Statistics
Read error : 0
Skipped (treated as error) : 0
Edge jitter error (maybe fixed) : 0
Atom jitter error (maybe fixed) : 0
Drift error (maybe fixed) : 0
Dropped bytes error (maybe fixed) : 0
Duplicated bytes error (maybe fixed) : 0
Inconsistency in error sectors : 0
Track 21
CRC32 hash (test run) : 1451726A
CRC32 hash : 1451726A
CRC32 hash (skip zero) : 5C88F9E0
AccurateRip v1 signature : 1156188B
AccurateRip v2 signature : 9917BDA3
->Accurately ripped (v1+v2, confidence 2+2/7)
Statistics
Read error : 0
Skipped (treated as error) : 0
Edge jitter error (maybe fixed) : 0
Atom jitter error (maybe fixed) : 0
Drift error (maybe fixed) : 0
Dropped bytes error (maybe fixed) : 0
Duplicated bytes error (maybe fixed) : 0
Inconsistency in error sectors : 0
Track 22
CRC32 hash (test run) : A1814638
CRC32 hash : A1814638
CRC32 hash (skip zero) : 2684727E
AccurateRip v1 signature : E17F553A
AccurateRip v2 signature : 562BADFB
->Accurately ripped (v1+v2, confidence 2+2/7)
Statistics
Read error : 0
Skipped (treated as error) : 0
Edge jitter error (maybe fixed) : 0
Atom jitter error (maybe fixed) : 0
Drift error (maybe fixed) : 0
Dropped bytes error (maybe fixed) : 0
Duplicated bytes error (maybe fixed) : 0
Inconsistency in error sectors : 0
Track 23
CRC32 hash (test run) : 33765A72
CRC32 hash : 33765A72
CRC32 hash (skip zero) : 77DB1567
AccurateRip v1 signature : 1B5196B7
AccurateRip v2 signature : 14EAEB40
->Accurately ripped (v1+v2, confidence 2+2/7)
Statistics
Read error : 0
Skipped (treated as error) : 0
Edge jitter error (maybe fixed) : 0
Atom jitter error (maybe fixed) : 0
Drift error (maybe fixed) : 0
Dropped bytes error (maybe fixed) : 0
Duplicated bytes error (maybe fixed) : 0
Inconsistency in error sectors : 0
Track 24
CRC32 hash (test run) : 1CEC37AB
CRC32 hash : 1CEC37AB
CRC32 hash (skip zero) : 56939F98
AccurateRip v1 signature : 3F1326ED
AccurateRip v2 signature : 5813A480
->Accurately ripped (v1+v2, confidence 2+2/7)
Statistics
Read error : 0
Skipped (treated as error) : 0
Edge jitter error (maybe fixed) : 0
Atom jitter error (maybe fixed) : 0
Drift error (maybe fixed) : 0
Dropped bytes error (maybe fixed) : 0
Duplicated bytes error (maybe fixed) : 0
Inconsistency in error sectors : 0
Track 25
CRC32 hash (test run) : 8CA7FD50
CRC32 hash : 8CA7FD50
CRC32 hash (skip zero) : 10951137
AccurateRip v1 signature : CFFEB6ED
AccurateRip v2 signature : 077D12FD
->Accurately ripped (v1+v2, confidence 2+2/7)
Statistics
Read error : 0
Skipped (treated as error) : 0
Edge jitter error (maybe fixed) : 0
Atom jitter error (maybe fixed) : 0
Drift error (maybe fixed) : 0
Dropped bytes error (maybe fixed) : 0
Duplicated bytes error (maybe fixed) : 0
Inconsistency in error sectors : 0
Track 26
CRC32 hash (test run) : 8D209508
CRC32 hash : 8D209508
CRC32 hash (skip zero) : BF6DF37D
AccurateRip v1 signature : CAD9BBF8
AccurateRip v2 signature : 547C5679
->Accurately ripped (v1+v2, confidence 2+2/7)
Statistics
Read error : 0
Skipped (treated as error) : 0
Edge jitter error (maybe fixed) : 0
Atom jitter error (maybe fixed) : 0
Drift error (maybe fixed) : 0
Dropped bytes error (maybe fixed) : 0
Duplicated bytes error (maybe fixed) : 0
Inconsistency in error sectors : 0
Track 27
CRC32 hash (test run) : 34A3468A
CRC32 hash : 34A3468A
CRC32 hash (skip zero) : DAAB6594
AccurateRip v1 signature : 695679A9
AccurateRip v2 signature : 8A7B70DB
->Accurately ripped (v1+v2, confidence 2+2/7)
Statistics
Read error : 0
Skipped (treated as error) : 0
Edge jitter error (maybe fixed) : 0
Atom jitter error (maybe fixed) : 0
Drift error (maybe fixed) : 0
Dropped bytes error (maybe fixed) : 0
Duplicated bytes error (maybe fixed) : 0
Inconsistency in error sectors : 0
Track 28
CRC32 hash (test run) : 7BFD828C
CRC32 hash : 7BFD828C
CRC32 hash (skip zero) : 74C2527E
AccurateRip v1 signature : C4D928C6
AccurateRip v2 signature : 0BBF924E
->Accurately ripped (v1+v2, confidence 2+2/7)
Statistics
Read error : 0
Skipped (treated as error) : 0
Edge jitter error (maybe fixed) : 0
Atom jitter error (maybe fixed) : 0
Drift error (maybe fixed) : 0
Dropped bytes error (maybe fixed) : 0
Duplicated bytes error (maybe fixed) : 0
Inconsistency in error sectors : 0
No errors occurred
End of status report

Easter Cantatas - Koopman - CD2.log:

X Lossless Decoder version 20141129 (148.1)
XLD extraction logfile from 2015-01-11 09:15:59 +0200
J. S. Bach / Easter Cantatas - Koopman - CD2
Used drive : MATSHITA DVD-R UJ-875 (revision DA09)
Media type : Pressed CD
Ripper mode : CDParanoia III 10.2
Disable audio cache : OK for the drive with a cache less than 2750KiB
Make use of C2 pointers : NO
Read offset correction : 102
Max retry count : 20
Gap status : Analyzed, Appended
TOC of the extracted CD
Track | Start | Length | Start sector | End sector
---------------------------------------------------------
1 | 00:00:00 | 00:42:22 | 0 | 3171
2 | 00:42:22 | 03:16:11 | 3172 | 17882
3 | 03:58:33 | 00:37:54 | 17883 | 20711
4 | 04:36:12 | 09:19:30 | 20712 | 62666
5 | 13:55:42 | 00:34:31 | 62667 | 65247
6 | 14:29:73 | 05:41:33 | 65248 | 90855
7 | 20:11:31 | 03:49:47 | 90856 | 108077
8 | 24:01:03 | 06:15:54 | 108078 | 136256
9 | 30:16:57 | 00:43:68 | 136257 | 139549
10 | 31:00:50 | 01:40:36 | 139550 | 147085
11 | 32:41:11 | 05:42:69 | 147086 | 172804
12 | 38:24:05 | 01:20:57 | 172805 | 178861
13 | 39:44:62 | 01:03:72 | 178862 | 183658
14 | 40:48:59 | 00:41:38 | 183659 | 186771
15 | 41:30:22 | 05:42:66 | 186772 | 212487
16 | 47:13:13 | 02:08:47 | 212488 | 222134
17 | 49:21:60 | 07:22:53 | 222135 | 255337
18 | 56:44:38 | 01:50:07 | 255338 | 263594
19 | 58:34:45 | 07:30:58 | 263595 | 297402
20 | 66:05:28 | 02:58:55 | 297403 | 310807
21 | 69:04:08 | 00:55:36 | 310808 | 314968
22 | 69:59:44 | 03:05:24 | 314969 | 328867
23 | 73:04:68 | 00:45:66 | 328868 | 332308
24 | 73:50:59 | 00:30:61 | 332309 | 334619
List of alternate offset correction values
# | Absolute | Relative | Confidence
------------------------------------------
1 | 766 | 664 | 3
AccurateRip Summary (DiscID: 0042ed5c-048e8696-5a116d18)
Track 01 : OK (v1+v2, confidence 4/7)
Track 02 : OK (v1+v2, confidence 4/7)
Track 03 : OK (v1+v2, confidence 4/7)
Track 04 : OK (v1+v2, confidence 4/7)
Track 05 : OK (v1+v2, confidence 4/7)
Track 06 : OK (v1+v2, confidence 4/7)
Track 07 : OK (v1+v2, confidence 4/7)
Track 08 : OK (v1+v2, confidence 4/7)
Track 09 : OK (v1+v2, confidence 4/7)
Track 10 : OK (v1+v2, confidence 4/7)
Track 11 : OK (v1+v2, confidence 4/7)
Track 12 : OK (v1+v2, confidence 4/7)
Track 13 : OK (v1+v2, confidence 4/7)
Track 14 : OK (v1+v2, confidence 4/7)
Track 15 : OK (v1+v2, confidence 4/7)
Track 16 : OK (v1+v2, confidence 4/7)
Track 17 : OK (v1+v2, confidence 4/7)
Track 18 : OK (v1+v2, confidence 4/7)
Track 19 : OK (v1+v2, confidence 4/7)
Track 20 : OK (v1+v2, confidence 4/7)
Track 21 : OK (v1+v2, confidence 4/7)
Track 22 : OK (v1+v2, confidence 4/7)
Track 23 : OK (v1, confidence 2/5)
Track 24 : OK (v1+v2, confidence 4/7)
->All tracks accurately ripped.
All Tracks
Filename : /Users/andrey/Desktop/bach easter cantatas koopman/Easter Cantatas - Koopman - CD2.aiff
CRC32 hash (test run) : 66AD4C09
CRC32 hash : 66AD4C09
CRC32 hash (skip zero) : 5D917A78
Statistics
Read error : 0
Skipped (treated as error) : 0
Edge jitter error (maybe fixed) : 0
Atom jitter error (maybe fixed) : 0
Drift error (maybe fixed) : 0
Dropped bytes error (maybe fixed) : 0
Duplicated bytes error (maybe fixed) : 0
Inconsistency in error sectors : 0
Track 01
Pre-gap length : 00:02:00
CRC32 hash (test run) : EFB19671
CRC32 hash : EFB19671
CRC32 hash (skip zero) : 76C3F293
AccurateRip v1 signature : 2FBB09A5
AccurateRip v2 signature : 9A88AD35
->Accurately ripped (v1+v2, confidence 2+2/7)
Statistics
Read error : 0
Skipped (treated as error) : 0
Edge jitter error (maybe fixed) : 0
Atom jitter error (maybe fixed) : 0
Drift error (maybe fixed) : 0
Dropped bytes error (maybe fixed) : 0
Duplicated bytes error (maybe fixed) : 0
Inconsistency in error sectors : 0
Track 02
CRC32 hash (test run) : C33478CA
CRC32 hash : C33478CA
CRC32 hash (skip zero) : 1C2B5AFC
AccurateRip v1 signature : C4A7CD4D
AccurateRip v2 signature : E481747E
->Accurately ripped (v1+v2, confidence 2+2/7)
Statistics
Read error : 0
Skipped (treated as error) : 0
Edge jitter error (maybe fixed) : 0
Atom jitter error (maybe fixed) : 0
Drift error (maybe fixed) : 0
Dropped bytes error (maybe fixed) : 0
Duplicated bytes error (maybe fixed) : 0
Inconsistency in error sectors : 0
Track 03
CRC32 hash (test run) : 209A6D23
CRC32 hash : 209A6D23
CRC32 hash (skip zero) : C17236E5
AccurateRip v1 signature : 1B927251
AccurateRip v2 signature : 15777E99
->Accurately ripped (v1+v2, confidence 2+2/7)
Statistics
Read error : 0
Skipped (treated as error) : 0
Edge jitter error (maybe fixed) : 0
Atom jitter error (maybe fixed) : 0
Drift error (maybe fixed) : 0
Dropped bytes error (maybe fixed) : 0
Duplicated bytes error (maybe fixed) : 0
Inconsistency in error sectors : 0
Track 04
CRC32 hash (test run) : 25AA7909
CRC32 hash : 25AA7909
CRC32 hash (skip zero) : 3F4F13C1
AccurateRip v1 signature : D3FB3C7D
AccurateRip v2 signature : 44E1E213
->Accurately ripped (v1+v2, confidence 2+2/7)
Statistics
Read error : 0
Skipped (treated as error) : 0
Edge jitter error (maybe fixed) : 0
Atom jitter error (maybe fixed) : 0
Drift error (maybe fixed) : 0
Dropped bytes error (maybe fixed) : 0
Duplicated bytes error (maybe fixed) : 0
Inconsistency in error sectors : 0
Track 05
CRC32 hash (test run) : A4BDDDE9
CRC32 hash : A4BDDDE9
CRC32 hash (skip zero) : 0EEFC92A
AccurateRip v1 signature : 67CAA806
AccurateRip v2 signature : F61758B2
->Accurately ripped (v1+v2, confidence 2+2/7)
Statistics
Read error : 0
Skipped (treated as error) : 0
Edge jitter error (maybe fixed) : 0
Atom jitter error (maybe fixed) : 0
Drift error (maybe fixed) : 0
Dropped bytes error (maybe fixed) : 0
Duplicated bytes error (maybe fixed) : 0
Inconsistency in error sectors : 0
Track 06
CRC32 hash (test run) : A9326808
CRC32 hash : A9326808
CRC32 hash (skip zero) : 4A8FAC2C
AccurateRip v1 signature : A1AA2F11
AccurateRip v2 signature : AB89E6EB
->Accurately ripped (v1+v2, confidence 2+2/7)
Statistics
Read error : 0
Skipped (treated as error) : 0
Edge jitter error (maybe fixed) : 0
Atom jitter error (maybe fixed) : 0
Drift error (maybe fixed) : 0
Dropped bytes error (maybe fixed) : 0
Duplicated bytes error (maybe fixed) : 0
Inconsistency in error sectors : 0
Track 07
CRC32 hash (test run) : 2BDAFE32
CRC32 hash : 2BDAFE32
CRC32 hash (skip zero) : CFD4FBBD
AccurateRip v1 signature : E4DE32B7
AccurateRip v2 signature : 3C4DC4D6
->Accurately ripped (v1+v2, confidence 2+2/7)
Statistics
Read error : 0
Skipped (treated as error) : 0
Edge jitter error (maybe fixed) : 0
Atom jitter error (maybe fixed) : 0
Drift error (maybe fixed) : 0
Dropped bytes error (maybe fixed) : 0
Duplicated bytes error (maybe fixed) : 0
Inconsistency in error sectors : 0
Track 08
CRC32 hash (test run) : 4CA4EA4B
CRC32 hash : 4CA4EA4B
CRC32 hash (skip zero) : 38CF1711
AccurateRip v1 signature : 96EC0F4C
AccurateRip v2 signature : D6D66F70
->Accurately ripped (v1+v2, confidence 2+2/7)
Statistics
Read error : 0
Skipped (treated as error) : 0
Edge jitter error (maybe fixed) : 0
Atom jitter error (maybe fixed) : 0
Drift error (maybe fixed) : 0
Dropped bytes error (maybe fixed) : 0
Duplicated bytes error (maybe fixed) : 0
Inconsistency in error sectors : 0
Track 09
CRC32 hash (test run) : 6A5B0803
CRC32 hash : 6A5B0803
CRC32 hash (skip zero) : 697053AC
AccurateRip v1 signature : A5FD64F9
AccurateRip v2 signature : 9ED57C38
->Accurately ripped (v1+v2, confidence 2+2/7)
Statistics
Read error : 0
Skipped (treated as error) : 0
Edge jitter error (maybe fixed) : 0
Atom jitter error (maybe fixed) : 0
Drift error (maybe fixed) : 0
Dropped bytes error (maybe fixed) : 0
Duplicated bytes error (maybe fixed) : 0
Inconsistency in error sectors : 0
Track 10
CRC32 hash (test run) : C2C99CC1
CRC32 hash : C2C99CC1
CRC32 hash (skip zero) : A8D392FA
AccurateRip v1 signature : CD5C09D9
AccurateRip v2 signature : FF48CE19
->Accurately ripped (v1+v2, confidence 2+2/7)
Statistics
Read error : 0
Skipped (treated as error) : 0
Edge jitter error (maybe fixed) : 0
Atom jitter error (maybe fixed) : 0
Drift error (maybe fixed) : 0
Dropped bytes error (maybe fixed) : 0
Duplicated bytes error (maybe fixed) : 0
Inconsistency in error sectors : 0
Track 11
CRC32 hash (test run) : C00ADF98
CRC32 hash : C00ADF98
CRC32 hash (skip zero) : 21C30E5B
AccurateRip v1 signature : 7B553B44
AccurateRip v2 signature : D760A22A
->Accurately ripped (v1+v2, confidence 2+2/7)
Statistics
Read error : 0
Skipped (treated as error) : 0
Edge jitter error (maybe fixed) : 0
Atom jitter error (maybe fixed) : 0
Drift error (maybe fixed) : 0
Dropped bytes error (maybe fixed) : 0
Duplicated bytes error (maybe fixed) : 0
Inconsistency in error sectors : 0
Track 12
CRC32 hash (test run) : 97A68F02
CRC32 hash : 97A68F02
CRC32 hash (skip zero) : DA29D937
AccurateRip v1 signature : 6A9E4B36
AccurateRip v2 signature : A9DE9ABF
->Accurately ripped (v1+v2, confidence 2+2/7)
Statistics
Read error : 0
Skipped (treated as error) : 0
Edge jitter error (maybe fixed) : 0
Atom jitter error (maybe fixed) : 0
Drift error (maybe fixed) : 0
Dropped bytes error (maybe fixed) : 0
Duplicated bytes error (maybe fixed) : 0
Inconsistency in error sectors : 0
Track 13
CRC32 hash (test run) : E926D7E7
CRC32 hash : E926D7E7
CRC32 hash (skip zero) : 158E079C
AccurateRip v1 signature : B007FAC8
AccurateRip v2 signature : B7918B18
->Accurately ripped (v1+v2, confidence 2+2/7)
Statistics
Read error : 0
Skipped (treated as error) : 0
Edge jitter error (maybe fixed) : 0
Atom jitter error (maybe fixed) : 0
Drift error (maybe fixed) : 0
Dropped bytes error (maybe fixed) : 0
Duplicated bytes error (maybe fixed) : 0
Inconsistency in error sectors : 0
Track 14
CRC32 hash (test run) : 26227D6C
CRC32 hash : 26227D6C
CRC32 hash (skip zero) : F1400667
AccurateRip v1 signature : 140B03FF
AccurateRip v2 signature : C32F7005
->Accurately ripped (v1+v2, confidence 2+2/7)
Statistics
Read error : 0
Skipped (treated as error) : 0
Edge jitter error (maybe fixed) : 0
Atom jitter error (maybe fixed) : 0
Drift error (maybe fixed) : 0
Dropped bytes error (maybe fixed) : 0
Duplicated bytes error (maybe fixed) : 0
Inconsistency in error sectors : 0
Track 15
CRC32 hash (test run) : 28B2F733
CRC32 hash : 28B2F733
CRC32 hash (skip zero) : CA107245
AccurateRip v1 signature : A2B127AF
AccurateRip v2 signature : 0E4E596C
->Accurately ripped (v1+v2, confidence 2+2/7)
Statistics
Read error : 0
Skipped (treated as error) : 0
Edge jitter error (maybe fixed) : 0
Atom jitter error (maybe fixed) : 0
Drift error (maybe fixed) : 0
Dropped bytes error (maybe fixed) : 0
Duplicated bytes error (maybe fixed) : 0
Inconsistency in error sectors : 0
Track 16
CRC32 hash (test run) : C1C6FD41
CRC32 hash : C1C6FD41
CRC32 hash (skip zero) : E4E5D4E8
AccurateRip v1 signature : 5317C18F
AccurateRip v2 signature : 8F2A5A09
->Accurately ripped (v1+v2, confidence 2+2/7)
Statistics
Read error : 0
Skipped (treated as error) : 0
Edge jitter error (maybe fixed) : 0
Atom jitter error (maybe fixed) : 0
Drift error (maybe fixed) : 0
Dropped bytes error (maybe fixed) : 0
Duplicated bytes error (maybe fixed) : 0
Inconsistency in error sectors : 0
Track 17
CRC32 hash (test run) : 2B8F2983
CRC32 hash : 2B8F2983
CRC32 hash (skip zero) : BC1C6C13
AccurateRip v1 signature : 396B0CF3
AccurateRip v2 signature : 0FC63639
->Accurately ripped (v1+v2, confidence 2+2/7)
Statistics
Read error : 0
Skipped (treated as error) : 0
Edge jitter error (maybe fixed) : 0
Atom jitter error (maybe fixed) : 0
Drift error (maybe fixed) : 0
Dropped bytes error (maybe fixed) : 0
Duplicated bytes error (maybe fixed) : 0
Inconsistency in error sectors : 0
Track 18
CRC32 hash (test run) : 21B8BCAC
CRC32 hash : 21B8BCAC
CRC32 hash (skip zero) : 8F2D39CC
AccurateRip v1 signature : CB4F61FB
AccurateRip v2 signature : D01D64C9
->Accurately ripped (v1+v2, confidence 2+2/7)
Statistics
Read error : 0
Skipped (treated as error) : 0
Edge jitter error (maybe fixed) : 0
Atom jitter error (maybe fixed) : 0
Drift error (maybe fixed) : 0
Dropped bytes error (maybe fixed) : 0
Duplicated bytes error (maybe fixed) : 0
Inconsistency in error sectors : 0
Track 19
CRC32 hash (test run) : 57509173
CRC32 hash : 57509173
CRC32 hash (skip zero) : 4D9591C7
AccurateRip v1 signature : 10E26AC9
AccurateRip v2 signature : E7FDA60E
->Accurately ripped (v1+v2, confidence 2+2/7)
Statistics
Read error : 0
Skipped (treated as error) : 0
Edge jitter error (maybe fixed) : 0
Atom jitter error (maybe fixed) : 0
Drift error (maybe fixed) : 0
Dropped bytes error (maybe fixed) : 0
Duplicated bytes error (maybe fixed) : 0
Inconsistency in error sectors : 0
Track 20
CRC32 hash (test run) : CE55DB53
CRC32 hash : CE55DB53
CRC32 hash (skip zero) : 19D69CCF
AccurateRip v1 signature : 8FAAD33A
AccurateRip v2 signature : C7591891
->Accurately ripped (v1+v2, confidence 2+2/7)
Statistics
Read error : 0
Skipped (treated as error) : 0
Edge jitter error (maybe fixed) : 0
Atom jitter error (maybe fixed) : 0
Drift error (maybe fixed) : 0
Dropped bytes error (maybe fixed) : 0
Duplicated bytes error (maybe fixed) : 0
Inconsistency in error sectors : 0
Track 21
CRC32 hash (test run) : 27B3164A
CRC32 hash : 27B3164A
CRC32 hash (skip zero) : AA7B4B8D
AccurateRip v1 signature : 84F10FD2
AccurateRip v2 signature : BBAF9D18
->Accurately ripped (v1+v2, confidence 2+2/7)
Statistics
Read error : 0
Skipped (treated as error) : 0
Edge jitter error (maybe fixed) : 0
Atom jitter error (maybe fixed) : 0
Drift error (maybe fixed) : 0
Dropped bytes error (maybe fixed) : 0
Duplicated bytes error (maybe fixed) : 0
Inconsistency in error sectors : 0
Track 22
CRC32 hash (test run) : 0F058C42
CRC32 hash : 0F058C42
CRC32 hash (skip zero) : 6CB9C9D5
AccurateRip v1 signature : C5612B87
AccurateRip v2 signature : E4059523
->Accurately ripped (v1+v2, confidence 2+2/7)
Statistics
Read error : 0
Skipped (treated as error) : 0
Edge jitter error (maybe fixed) : 0
Atom jitter error (maybe fixed) : 0
Drift error (maybe fixed) : 0
Dropped bytes error (maybe fixed) : 0
Duplicated bytes error (maybe fixed) : 0
Inconsistency in error sectors : 0
Track 23
CRC32 hash (test run) : E101AB0A
CRC32 hash : E101AB0A
CRC32 hash (skip zero) : 8460342D
AccurateRip v1 signature : E7E9B80B
AccurateRip v2 signature : E36B37F6
->Accurately ripped (v1, confidence 2/5)
Statistics
Read error : 0
Skipped (treated as error) : 0
Edge jitter error (maybe fixed) : 0
Atom jitter error (maybe fixed) : 0
Drift error (maybe fixed) : 0
Dropped bytes error (maybe fixed) : 0
Duplicated bytes error (maybe fixed) : 0
Inconsistency in error sectors : 0
Track 24
CRC32 hash (test run) : FACA8BBE
CRC32 hash : FACA8BBE
CRC32 hash (skip zero) : 524B165D
AccurateRip v1 signature : FEA9828A
AccurateRip v2 signature : 23692943
->Accurately ripped (v1+v2, confidence 2+2/7)
Statistics
Read error : 0
Skipped (treated as error) : 0
Edge jitter error (maybe fixed) : 0
Atom jitter error (maybe fixed) : 0
Drift error (maybe fixed) : 0
Dropped bytes error (maybe fixed) : 0
Duplicated bytes error (maybe fixed) : 0
Inconsistency in error sectors : 0
No errors occurred
End of status report

Содержание индексной карты (.CUE):

Easter Cantatas - Koopman - CD1.cue:

TITLE "Easter Cantatas - Koopman - CD1"
PERFORMER "J. S. Bach"
REM GENRE "Classical"
REM DATE "2005"
REM DISCID 91125B1C
FILE "Easter Cantatas - Koopman - CD1.aiff" WAVE
TRACK 01 AUDIO
TITLE "BWV 182 - Sonata"
INDEX 01 00:00:00
TRACK 02 AUDIO
TITLE "BWV 182 - Chorus - Himmelskoenig, sei willkommen"
INDEX 01 02:01:30
TRACK 03 AUDIO
TITLE "BWV 182 - Recitative - Siehe, siehe, ich komme"
INDEX 01 05:01:36
TRACK 04 AUDIO
TITLE "BWV 182 - Aria - Starkes Lieben, das dich, grosser Gottessohn"
INDEX 01 05:32:40
TRACK 05 AUDIO
TITLE "BWV 182 - Aria - Leget euch dem Heiland unter"
INDEX 01 08:07:08
TRACK 06 AUDIO
TITLE "BWV 182 - Aria - Jesu, lass durch Wohl und Weh"
INDEX 01 14:43:62
TRACK 07 AUDIO
TITLE "BWV 182 - Chorale - Jesu, deine Passion"
INDEX 01 18:23:21
TRACK 08 AUDIO
TITLE "BWV 182 - Chorus - So lasset uns gehen in Salem der Freunden"
INDEX 01 20:53:17
TRACK 09 AUDIO
TITLE "BWV 4 - Sinfonia"
INDEX 01 24:46:26
TRACK 10 AUDIO
TITLE "BWV 4 - Coro - Christ lag in Todesbanden"
INDEX 01 25:56:25
TRACK 11 AUDIO
TITLE "BWV 4 - Duet - Den Tod niemand zwingen kunnt"
INDEX 01 29:38:63
TRACK 12 AUDIO
TITLE "BWV 4 - Aria - Jesus Christus, Gottes Sohn"
INDEX 01 33:48:48
TRACK 13 AUDIO
TITLE "BWV 4 - Coro - Es war ein wunderlicher Krieg"
INDEX 01 35:51:51
TRACK 14 AUDIO
TITLE "BWV 4 - Aria - Hier ist das rechte Osterlamm"
INDEX 01 37:59:46
TRACK 15 AUDIO
TITLE "BWV 4 - Duet - So feiern wir das hohe Fest"
INDEX 01 40:54:44
TRACK 16 AUDIO
TITLE "BWV 4 - Chorale - Wir essen und leben wohl"
INDEX 01 42:51:62
TRACK 17 AUDIO
TITLE "BWV 31 - Sonata"
INDEX 01 44:11:40
TRACK 18 AUDIO
TITLE "BWV 31 - Chorus - Der Himmel lacht! die Erde jubilieret"
INDEX 01 46:41:71
TRACK 19 AUDIO
TITLE "BWV 31 - Recitative - Erwuenschter Tag! Sei, Seele, wieder froh"
INDEX 01 50:17:69
TRACK 20 AUDIO
TITLE "BWV 31 - Aria - Fuerst des Lebens, starker Streiter"
INDEX 01 52:22:27
TRACK 21 AUDIO
TITLE "BWV 31 - Recitative - So stehe dann, du gottergebne Seele"
INDEX 01 55:46:73
TRACK 22 AUDIO
TITLE "BWV 31 - Aria - Adam muss in uns verwesen"
INDEX 01 56:53:55
TRACK 23 AUDIO
TITLE "BWV 31 - Recitative - Weil dann das Haupt sein Glied"
INDEX 01 59:11:63
TRACK 24 AUDIO
TITLE "BWV 31 - Aria - Letzte Stunde, brich herein"
INDEX 01 60:01:67
TRACK 25 AUDIO
TITLE "BWV 31 - Chorale - So fahr ich hin zu Jesu Christ"
INDEX 01 64:06:10
TRACK 26 AUDIO
TITLE "BWV 6 - Chorus - Bleib bei uns, denn es will Abend werden"
INDEX 01 65:14:39
TRACK 27 AUDIO
TITLE "BWV 6 - Aria - Hochgelobter Gottessohn"
INDEX 01 71:24:09
TRACK 28 AUDIO
TITLE "BWV 6 - Chorale - Ach bleib bei uns, Herr Jesu Christ"
INDEX 01 74:33:17

Easter Cantatas - Koopman - CD2.cue:

TITLE "Easter Cantatas - Koopman - CD2"
PERFORMER "J. S. Bach"
REM GENRE "Classical"
REM DATE "2005"
REM DISCID 5A116D18
FILE "Easter Cantatas - Koopman - CD2.aiff" WAVE
TRACK 01 AUDIO
TITLE "BWV 6 - Recitative - Es hat die Dunkelheit"
INDEX 01 00:00:00
TRACK 02 AUDIO
TITLE "BWV 6 - Aria - Jesu, lass uns auf dich sehen"
INDEX 01 00:42:22
TRACK 03 AUDIO
TITLE "BWV 6 - Chorale - Beweis dein Macht, Herr Jesu Christ"
INDEX 01 03:58:33
TRACK 04 AUDIO
TITLE "BWV 66 - Chorus - Erfreut euch, ihr Herzen"
INDEX 01 04:36:12
TRACK 05 AUDIO
TITLE "BWV 66 - Recitative - Es bricht das Grab"
INDEX 01 13:55:42
TRACK 06 AUDIO
TITLE "BWV 66 - Aria - Lasset dem Hoechsten ein Danklied erschallen"
INDEX 01 14:29:73
TRACK 07 AUDIO
TITLE "BWV 66 - Recitative and Arioso - Bei Jesu Leben freudig sein"
INDEX 01 20:11:31
TRACK 08 AUDIO
TITLE "BWV 66 - Duet - Ich furchte zwar des Grabes Finsternissen"
INDEX 01 24:01:03
TRACK 09 AUDIO
TITLE "BWV 66 - Chorale - Alleluja!"
INDEX 01 30:16:57
TRACK 10 AUDIO
TITLE "BWV 158 - Recitative - Der Friede sei mit dir"
INDEX 01 31:00:50
TRACK 11 AUDIO
TITLE "BWV 158 - Aria, Chorale - Welt, ade, ich bin dein Muede"
INDEX 01 32:41:11
TRACK 12 AUDIO
TITLE "BWV 158 - Recitative - Nun Herr, regiere meinen Sinn"
INDEX 01 38:24:05
TRACK 13 AUDIO
TITLE "BWV 158 - Chorale - Hier ist das rechte Osterlamm"
INDEX 01 39:44:62
TRACK 14 AUDIO
TITLE "BWV 134 - Recitative - Ein Herz, das seinen Jesum lebend weiss"
INDEX 01 40:48:59
TRACK 15 AUDIO
TITLE "BWV 134 - Aria - Auf, Glaeubige, singet die lieblichen Lieder"
INDEX 01 41:30:22
TRACK 16 AUDIO
TITLE "BWV 134 - Recitative - Wohl dir, Gott hat an dich gedacht"
INDEX 01 47:13:13
TRACK 17 AUDIO
TITLE "BWV 134 - Aria - Wir danken und preisen dein bruenstiges Lieben"
INDEX 01 49:21:60
TRACK 18 AUDIO
TITLE "BWV 134 - Recitative - Doch wirke selbst den Dank in unserm Munde"
INDEX 01 56:44:38
TRACK 19 AUDIO
TITLE "BWV 134 - Chorus - Erschallet, ihr Himmel"
INDEX 01 58:34:45
TRACK 20 AUDIO
TITLE "BWV 145 - Aria - Ich lebe, mein Herze"
INDEX 01 66:05:28
TRACK 21 AUDIO
TITLE "BWV 145 - Recitative - Nun fordre, Moses, wie du willt"
INDEX 01 69:04:08
TRACK 22 AUDIO
TITLE "BWV 145 - Aria - Merke, mein Herze, bestaendig nur dies"
INDEX 01 69:59:44
TRACK 23 AUDIO
TITLE "BWV 145 - Recitative - Mein Jesus lebt!"
INDEX 01 73:04:68
TRACK 24 AUDIO
TITLE "BWV 145 - Chorale - Drum wir auch billig froehlich sein"
INDEX 01 73:50:59

Лог проверки качества (AccurateRip checking logfiles):

AccurateRip Verity CD1.log:

X Lossless Decoder version 20141129 (148.1)
XLD AccurateRip checking logfile
TOC of the selected file
Track | Start | Length | Start sector | End sector
---------------------------------------------------------
1 | 00:00:00 | 02:01:30 | 0 | 9104
2 | 02:01:30 | 03:00:06 | 9105 | 22610
3 | 05:01:36 | 00:31:04 | 22611 | 24939
4 | 05:32:40 | 02:34:43 | 24940 | 36532
5 | 08:07:08 | 06:36:54 | 36533 | 66286
6 | 14:43:62 | 03:39:34 | 66287 | 82745
7 | 18:23:21 | 02:29:71 | 82746 | 93991
8 | 20:53:17 | 03:53:09 | 93992 | 111475
9 | 24:46:26 | 01:09:74 | 111476 | 116724
10 | 25:56:25 | 03:42:38 | 116725 | 133412
11 | 29:38:63 | 04:09:60 | 133413 | 152147
12 | 33:48:48 | 02:03:03 | 152148 | 161375
13 | 35:51:51 | 02:07:70 | 161376 | 170970
14 | 37:59:46 | 02:54:73 | 170971 | 184093
15 | 40:54:44 | 01:57:18 | 184094 | 192886
16 | 42:51:62 | 01:19:53 | 192887 | 198864
17 | 44:11:40 | 02:30:31 | 198865 | 210145
18 | 46:41:71 | 03:35:73 | 210146 | 226343
19 | 50:17:69 | 02:04:33 | 226344 | 235676
20 | 52:22:27 | 03:24:46 | 235677 | 251022
21 | 55:46:73 | 01:06:57 | 251023 | 256029
22 | 56:53:55 | 02:18:08 | 256030 | 266387
23 | 59:11:63 | 00:50:04 | 266388 | 270141
24 | 60:01:67 | 04:04:18 | 270142 | 288459
25 | 64:06:10 | 01:08:29 | 288460 | 293588
26 | 65:14:39 | 06:09:45 | 293589 | 321308
27 | 71:24:09 | 03:09:08 | 321309 | 335491
28 | 74:33:17 | 03:46:18 | 335492 | 352459
List of alternate offset correction values
(1) 664 (confidence 3)
AccurateRip Summary (DiscID: 004d4a0d-0600fa93-91125b1c)
Track 01 : OK (v1, confidence 2/5)
Track 02 : OK (v1+v2, confidence 4/7)
Track 03 : OK (v1+v2, confidence 4/7)
Track 04 : OK (v1+v2, confidence 4/7)
Track 05 : OK (v1+v2, confidence 4/7)
Track 06 : OK (v1+v2, confidence 4/7)
Track 07 : OK (v1+v2, confidence 4/7)
Track 08 : OK (v1+v2, confidence 4/7)
Track 09 : OK (v1+v2, confidence 4/7)
Track 10 : OK (v1+v2, confidence 4/7)
Track 11 : OK (v1+v2, confidence 4/7)
Track 12 : OK (v1+v2, confidence 4/7)
Track 13 : OK (v1+v2, confidence 4/7)
Track 14 : OK (v1+v2, confidence 4/7)
Track 15 : OK (v1+v2, confidence 4/7)
Track 16 : OK (v1+v2, confidence 4/7)
Track 17 : OK (v1+v2, confidence 4/7)
Track 18 : OK (v1+v2, confidence 4/7)
Track 19 : OK (v1+v2, confidence 4/7)
Track 20 : OK (v1+v2, confidence 4/7)
Track 21 : OK (v1+v2, confidence 4/7)
Track 22 : OK (v1+v2, confidence 4/7)
Track 23 : OK (v1+v2, confidence 4/7)
Track 24 : OK (v1+v2, confidence 4/7)
Track 25 : OK (v1+v2, confidence 4/7)
Track 26 : OK (v1+v2, confidence 4/7)
Track 27 : OK (v1+v2, confidence 4/7)
Track 28 : OK (v1+v2, confidence 4/7)
->All tracks accurately ripped.
All Tracks
Album gain : 3.58 dB
Peak : 0.824463
CRC32 hash : 5B79DB0F
CRC32 hash (skip zero) : B54312F1
Track 01
Track gain : 11.49 dB
Peak : 0.195740
CRC32 hash : 33DD0FD6
CRC32 hash (skip zero) : EF80974B
AccurateRip v1 signature : 6E8E08E7
AccurateRip v2 signature : 3E3D47C2
->Accurately ripped (v1, confidence 2/5)
Track 02
Track gain : 0.46 dB
Peak : 0.773285
CRC32 hash : 69BDD718
CRC32 hash (skip zero) : 6D4DA651
AccurateRip v1 signature : 6AEB5E9A
AccurateRip v2 signature : 3898555C
->Accurately ripped (v1+v2, confidence 2+2/7)
Track 03
Track gain : 6.83 dB
Peak : 0.298248
CRC32 hash : CC37D877
CRC32 hash (skip zero) : 3DA828AD
AccurateRip v1 signature : 0E3D9B7E
AccurateRip v2 signature : 965F56E4
->Accurately ripped (v1+v2, confidence 2+2/7)
Track 04
Track gain : 6.11 dB
Peak : 0.480347
CRC32 hash : C61504F7
CRC32 hash (skip zero) : 9BC16334
AccurateRip v1 signature : 71E891B1
AccurateRip v2 signature : F7188F77
->Accurately ripped (v1+v2, confidence 2+2/7)
Track 05
Track gain : 8.15 dB
Peak : 0.472656
CRC32 hash : 06929BE1
CRC32 hash (skip zero) : BA91C405
AccurateRip v1 signature : 8174A9C7
AccurateRip v2 signature : A03D2C1E
->Accurately ripped (v1+v2, confidence 2+2/7)
Track 06
Track gain : 6.70 dB
Peak : 0.435303
CRC32 hash : B219D117
CRC32 hash (skip zero) : 993C297B
AccurateRip v1 signature : 541DB496
AccurateRip v2 signature : 15948409
->Accurately ripped (v1+v2, confidence 2+2/7)
Track 07
Track gain : 1.88 dB
Peak : 0.617188
CRC32 hash : 12A1526E
CRC32 hash (skip zero) : 292B6533
AccurateRip v1 signature : EE4CC486
AccurateRip v2 signature : 2D6416D1
->Accurately ripped (v1+v2, confidence 2+2/7)
Track 08
Track gain : 0.74 dB
Peak : 0.824463
CRC32 hash : BDABA0C0
CRC32 hash (skip zero) : 5C23A8D8
AccurateRip v1 signature : 42599B87
AccurateRip v2 signature : 07E94183
->Accurately ripped (v1+v2, confidence 2+2/7)
Track 09
Track gain : 11.84 dB
Peak : 0.156006
CRC32 hash : C48839B0
CRC32 hash (skip zero) : 7888A0A6
AccurateRip v1 signature : E165530D
AccurateRip v2 signature : 700974BD
->Accurately ripped (v1+v2, confidence 2+2/7)
Track 10
Track gain : 3.02 dB
Peak : 0.607056
CRC32 hash : 61E27107
CRC32 hash (skip zero) : 8A7876A2
AccurateRip v1 signature : 3CBF365F
AccurateRip v2 signature : 95A51BFE
->Accurately ripped (v1+v2, confidence 2+2/7)
Track 11
Track gain : 2.19 dB
Peak : 0.703369
CRC32 hash : 8EB47D63
CRC32 hash (skip zero) : F233F721
AccurateRip v1 signature : 837DC397
AccurateRip v2 signature : B882B458
->Accurately ripped (v1+v2, confidence 2+2/7)
Track 12
Track gain : 9.04 dB
Peak : 0.416656
CRC32 hash : BC60B81D
CRC32 hash (skip zero) : A1834FAB
AccurateRip v1 signature : 652B6DC4
AccurateRip v2 signature : B73D93D1
->Accurately ripped (v1+v2, confidence 2+2/7)
Track 13
Track gain : 0.93 dB
Peak : 0.736053
CRC32 hash : F24A1E18
CRC32 hash (skip zero) : 7E8AFCE5
AccurateRip v1 signature : AE26255F
AccurateRip v2 signature : 3FDB7FAE
->Accurately ripped (v1+v2, confidence 2+2/7)
Track 14
Track gain : 5.17 dB
Peak : 0.390137
CRC32 hash : B61D89C9
CRC32 hash (skip zero) : 849871BA
AccurateRip v1 signature : A3881D75
AccurateRip v2 signature : A726379E
->Accurately ripped (v1+v2, confidence 2+2/7)
Track 15
Track gain : 2.84 dB
Peak : 0.599457
CRC32 hash : AA45A116
CRC32 hash (skip zero) : 37670BAD
AccurateRip v1 signature : 1B3E543A
AccurateRip v2 signature : 6720563C
->Accurately ripped (v1+v2, confidence 2+2/7)
Track 16
Track gain : 1.70 dB
Peak : 0.775970
CRC32 hash : FB0B552E
CRC32 hash (skip zero) : E763E294
AccurateRip v1 signature : F94240E8
AccurateRip v2 signature : 1DA6DDFE
->Accurately ripped (v1+v2, confidence 2+2/7)
Track 17
Track gain : 5.71 dB
Peak : 0.468994
CRC32 hash : 5917FDFB
CRC32 hash (skip zero) : 19C85974
AccurateRip v1 signature : 3C190E17
AccurateRip v2 signature : E0E5970E
->Accurately ripped (v1+v2, confidence 2+2/7)
Track 18
Track gain : 2.54 dB
Peak : 0.528168
CRC32 hash : 6468E547
CRC32 hash (skip zero) : 08A248E0
AccurateRip v1 signature : C6DB5D14
AccurateRip v2 signature : 9A7B9D7F
->Accurately ripped (v1+v2, confidence 2+2/7)
Track 19
Track gain : 7.89 dB
Peak : 0.292816
CRC32 hash : 473C3BA4
CRC32 hash (skip zero) : 635362C3
AccurateRip v1 signature : 8415A99F
AccurateRip v2 signature : 5D0511BA
->Accurately ripped (v1+v2, confidence 2+2/7)
Track 20
Track gain : 8.09 dB
Peak : 0.450989
CRC32 hash : 3A386F2D
CRC32 hash (skip zero) : CBA93C57
AccurateRip v1 signature : C7D26713
AccurateRip v2 signature : 57E70233
->Accurately ripped (v1+v2, confidence 2+2/7)
Track 21
Track gain : 7.30 dB
Peak : 0.811310
CRC32 hash : 1451726A
CRC32 hash (skip zero) : 5C88F9E0
AccurateRip v1 signature : 1156188B
AccurateRip v2 signature : 9917BDA3
->Accurately ripped (v1+v2, confidence 2+2/7)
Track 22
Track gain : 9.11 dB
Peak : 0.337219
CRC32 hash : A1814638
CRC32 hash (skip zero) : 2684727E
AccurateRip v1 signature : E17F553A
AccurateRip v2 signature : 562BADFB
->Accurately ripped (v1+v2, confidence 2+2/7)
Track 23
Track gain : 3.95 dB
Peak : 0.494537
CRC32 hash : 33765A72
CRC32 hash (skip zero) : 77DB1567
AccurateRip v1 signature : 1B5196B7
AccurateRip v2 signature : 14EAEB40
->Accurately ripped (v1+v2, confidence 2+2/7)
Track 24
Track gain : 4.75 dB
Peak : 0.519958
CRC32 hash : 1CEC37AB
CRC32 hash (skip zero) : 56939F98
AccurateRip v1 signature : 3F1326ED
AccurateRip v2 signature : 5813A480
->Accurately ripped (v1+v2, confidence 2+2/7)
Track 25
Track gain : -0.64 dB
Peak : 0.751251
CRC32 hash : 8CA7FD50
CRC32 hash (skip zero) : 10951137
AccurateRip v1 signature : CFFEB6ED
AccurateRip v2 signature : 077D12FD
->Accurately ripped (v1+v2, confidence 2+2/7)
Track 26
Track gain : 4.01 dB
Peak : 0.583191
CRC32 hash : 8D209508
CRC32 hash (skip zero) : BF6DF37D
AccurateRip v1 signature : CAD9BBF8
AccurateRip v2 signature : 547C5679
->Accurately ripped (v1+v2, confidence 2+2/7)
Track 27
Track gain : 11.39 dB
Peak : 0.281555
CRC32 hash : 34A3468A
CRC32 hash (skip zero) : DAAB6594
AccurateRip v1 signature : 695679A9
AccurateRip v2 signature : 8A7B70DB
->Accurately ripped (v1+v2, confidence 2+2/7)
Track 28
Track gain : 7.82 dB
Peak : 0.365509
CRC32 hash : 7BFD828C
CRC32 hash (skip zero) : 74C2527E
AccurateRip v1 signature : C4D928C6
AccurateRip v2 signature : 0BBF924E
->Accurately ripped (v1+v2, confidence 2+2/7)
End of status report

AccurateRip Verity CD2.log:

X Lossless Decoder version 20141129 (148.1)
XLD AccurateRip checking logfile
TOC of the selected file
Track | Start | Length | Start sector | End sector
---------------------------------------------------------
1 | 00:00:00 | 00:42:22 | 0 | 3171
2 | 00:42:22 | 03:16:11 | 3172 | 17882
3 | 03:58:33 | 00:37:54 | 17883 | 20711
4 | 04:36:12 | 09:19:30 | 20712 | 62666
5 | 13:55:42 | 00:34:31 | 62667 | 65247
6 | 14:29:73 | 05:41:33 | 65248 | 90855
7 | 20:11:31 | 03:49:47 | 90856 | 108077
8 | 24:01:03 | 06:15:54 | 108078 | 136256
9 | 30:16:57 | 00:43:68 | 136257 | 139549
10 | 31:00:50 | 01:40:36 | 139550 | 147085
11 | 32:41:11 | 05:42:69 | 147086 | 172804
12 | 38:24:05 | 01:20:57 | 172805 | 178861
13 | 39:44:62 | 01:03:72 | 178862 | 183658
14 | 40:48:59 | 00:41:38 | 183659 | 186771
15 | 41:30:22 | 05:42:66 | 186772 | 212487
16 | 47:13:13 | 02:08:47 | 212488 | 222134
17 | 49:21:60 | 07:22:53 | 222135 | 255337
18 | 56:44:38 | 01:50:07 | 255338 | 263594
19 | 58:34:45 | 07:30:58 | 263595 | 297402
20 | 66:05:28 | 02:58:55 | 297403 | 310807
21 | 69:04:08 | 00:55:36 | 310808 | 314968
22 | 69:59:44 | 03:05:24 | 314969 | 328867
23 | 73:04:68 | 00:45:66 | 328868 | 332308
24 | 73:50:59 | 00:30:61 | 332309 | 334619
List of alternate offset correction values
(1) 664 (confidence 3)
AccurateRip Summary (DiscID: 0042ed5c-048e8696-5a116d18)
Track 01 : OK (v1+v2, confidence 4/7)
Track 02 : OK (v1+v2, confidence 4/7)
Track 03 : OK (v1+v2, confidence 4/7)
Track 04 : OK (v1+v2, confidence 4/7)
Track 05 : OK (v1+v2, confidence 4/7)
Track 06 : OK (v1+v2, confidence 4/7)
Track 07 : OK (v1+v2, confidence 4/7)
Track 08 : OK (v1+v2, confidence 4/7)
Track 09 : OK (v1+v2, confidence 4/7)
Track 10 : OK (v1+v2, confidence 4/7)
Track 11 : OK (v1+v2, confidence 4/7)
Track 12 : OK (v1+v2, confidence 4/7)
Track 13 : OK (v1+v2, confidence 4/7)
Track 14 : OK (v1+v2, confidence 4/7)
Track 15 : OK (v1+v2, confidence 4/7)
Track 16 : OK (v1+v2, confidence 4/7)
Track 17 : OK (v1+v2, confidence 4/7)
Track 18 : OK (v1+v2, confidence 4/7)
Track 19 : OK (v1+v2, confidence 4/7)
Track 20 : OK (v1+v2, confidence 4/7)
Track 21 : OK (v1+v2, confidence 4/7)
Track 22 : OK (v1+v2, confidence 4/7)
Track 23 : OK (v1, confidence 2/5)
Track 24 : OK (v1+v2, confidence 4/7)
->All tracks accurately ripped.
All Tracks
Album gain : 3.67 dB
Peak : 0.891602
CRC32 hash : 66AD4C09
CRC32 hash (skip zero) : 5D917A78
Track 01
Track gain : 8.88 dB
Peak : 0.365204
CRC32 hash : EFB19671
CRC32 hash (skip zero) : 76C3F293
AccurateRip v1 signature : 2FBB09A5
AccurateRip v2 signature : 9A88AD35
->Accurately ripped (v1+v2, confidence 2+2/7)
Track 02
Track gain : 6.72 dB
Peak : 0.394684
CRC32 hash : C33478CA
CRC32 hash (skip zero) : 1C2B5AFC
AccurateRip v1 signature : C4A7CD4D
AccurateRip v2 signature : E481747E
->Accurately ripped (v1+v2, confidence 2+2/7)
Track 03
Track gain : 5.82 dB
Peak : 0.400421
CRC32 hash : 209A6D23
CRC32 hash (skip zero) : C17236E5
AccurateRip v1 signature : 1B927251
AccurateRip v2 signature : 15777E99
->Accurately ripped (v1+v2, confidence 2+2/7)
Track 04
Track gain : 0.60 dB
Peak : 0.891602
CRC32 hash : 25AA7909
CRC32 hash (skip zero) : 3F4F13C1
AccurateRip v1 signature : D3FB3C7D
AccurateRip v2 signature : 44E1E213
->Accurately ripped (v1+v2, confidence 2+2/7)
Track 05
Track gain : 8.00 dB
Peak : 0.285919
CRC32 hash : A4BDDDE9
CRC32 hash (skip zero) : 0EEFC92A
AccurateRip v1 signature : 67CAA806
AccurateRip v2 signature : F61758B2
->Accurately ripped (v1+v2, confidence 2+2/7)
Track 06
Track gain : 5.67 dB
Peak : 0.468689
CRC32 hash : A9326808
CRC32 hash (skip zero) : 4A8FAC2C
AccurateRip v1 signature : A1AA2F11
AccurateRip v2 signature : AB89E6EB
->Accurately ripped (v1+v2, confidence 2+2/7)
Track 07
Track gain : 5.64 dB
Peak : 0.404968
CRC32 hash : 2BDAFE32
CRC32 hash (skip zero) : CFD4FBBD
AccurateRip v1 signature : E4DE32B7
AccurateRip v2 signature : 3C4DC4D6
->Accurately ripped (v1+v2, confidence 2+2/7)
Track 08
Track gain : 6.34 dB
Peak : 0.355713
CRC32 hash : 4CA4EA4B
CRC32 hash (skip zero) : 38CF1711
AccurateRip v1 signature : 96EC0F4C
AccurateRip v2 signature : D6D66F70
->Accurately ripped (v1+v2, confidence 2+2/7)
Track 09
Track gain : 3.86 dB
Peak : 0.612823
CRC32 hash : 6A5B0803
CRC32 hash (skip zero) : 697053AC
AccurateRip v1 signature : A5FD64F9
AccurateRip v2 signature : 9ED57C38
->Accurately ripped (v1+v2, confidence 2+2/7)
Track 10
Track gain : 9.28 dB
Peak : 0.239960
CRC32 hash : C2C99CC1
CRC32 hash (skip zero) : A8D392FA
AccurateRip v1 signature : CD5C09D9
AccurateRip v2 signature : FF48CE19
->Accurately ripped (v1+v2, confidence 2+2/7)
Track 11
Track gain : 5.85 dB
Peak : 0.475372
CRC32 hash : C00ADF98
CRC32 hash (skip zero) : 21C30E5B
AccurateRip v1 signature : 7B553B44
AccurateRip v2 signature : D760A22A
->Accurately ripped (v1+v2, confidence 2+2/7)
Track 12
Track gain : 7.96 dB
Peak : 0.284149
CRC32 hash : 97A68F02
CRC32 hash (skip zero) : DA29D937
AccurateRip v1 signature : 6A9E4B36
AccurateRip v2 signature : A9DE9ABF
->Accurately ripped (v1+v2, confidence 2+2/7)
Track 13
Track gain : 5.47 dB
Peak : 0.416382
CRC32 hash : E926D7E7
CRC32 hash (skip zero) : 158E079C
AccurateRip v1 signature : B007FAC8
AccurateRip v2 signature : B7918B18
->Accurately ripped (v1+v2, confidence 2+2/7)
Track 14
Track gain : 6.46 dB
Peak : 0.333923
CRC32 hash : 26227D6C
CRC32 hash (skip zero) : F1400667
AccurateRip v1 signature : 140B03FF
AccurateRip v2 signature : C32F7005
->Accurately ripped (v1+v2, confidence 2+2/7)
Track 15
Track gain : 4.82 dB
Peak : 0.683441
CRC32 hash : 28B2F733
CRC32 hash (skip zero) : CA107245
AccurateRip v1 signature : A2B127AF
AccurateRip v2 signature : 0E4E596C
->Accurately ripped (v1+v2, confidence 2+2/7)
Track 16
Track gain : 7.85 dB
Peak : 0.335693
CRC32 hash : C1C6FD41
CRC32 hash (skip zero) : E4E5D4E8
AccurateRip v1 signature : 5317C18F
AccurateRip v2 signature : 8F2A5A09
->Accurately ripped (v1+v2, confidence 2+2/7)
Track 17
Track gain : 5.44 dB
Peak : 0.442139
CRC32 hash : 2B8F2983
CRC32 hash (skip zero) : BC1C6C13
AccurateRip v1 signature : 396B0CF3
AccurateRip v2 signature : 0FC63639
->Accurately ripped (v1+v2, confidence 2+2/7)
Track 18
Track gain : 8.11 dB
Peak : 0.453888
CRC32 hash : 21B8BCAC
CRC32 hash (skip zero) : 8F2D39CC
AccurateRip v1 signature : CB4F61FB
AccurateRip v2 signature : D01D64C9
->Accurately ripped (v1+v2, confidence 2+2/7)
Track 19
Track gain : 0.80 dB
Peak : 0.838104
CRC32 hash : 57509173
CRC32 hash (skip zero) : 4D9591C7
AccurateRip v1 signature : 10E26AC9
AccurateRip v2 signature : E7FDA60E
->Accurately ripped (v1+v2, confidence 2+2/7)
Track 20
Track gain : 4.40 dB
Peak : 0.460510
CRC32 hash : CE55DB53
CRC32 hash (skip zero) : 19D69CCF
AccurateRip v1 signature : 8FAAD33A
AccurateRip v2 signature : C7591891
->Accurately ripped (v1+v2, confidence 2+2/7)
Track 21
Track gain : 9.65 dB
Peak : 0.300995
CRC32 hash : 27B3164A
CRC32 hash (skip zero) : AA7B4B8D
AccurateRip v1 signature : 84F10FD2
AccurateRip v2 signature : BBAF9D18
->Accurately ripped (v1+v2, confidence 2+2/7)
Track 22
Track gain : 3.60 dB
Peak : 0.557098
CRC32 hash : 0F058C42
CRC32 hash (skip zero) : 6CB9C9D5
AccurateRip v1 signature : C5612B87
AccurateRip v2 signature : E4059523
->Accurately ripped (v1+v2, confidence 2+2/7)
Track 23
Track gain : 4.57 dB
Peak : 0.354706
CRC32 hash : E101AB0A
CRC32 hash (skip zero) : 8460342D
AccurateRip v1 signature : E7E9B80B
AccurateRip v2 signature : E36B37F6
->Accurately ripped (v1, confidence 2/5)
Track 24
Track gain : 4.69 dB
Peak : 0.366364
CRC32 hash : FACA8BBE
CRC32 hash (skip zero) : 524B165D
AccurateRip v1 signature : FEA9828A
AccurateRip v2 signature : 23692943
->Accurately ripped (v1+v2, confidence 2+2/7)
End of status report

Скриншоты спектров частот:

Спектрограмма CD1:

Спектрограмма CD2:

Настройки копирования:

XLD Версия:

Настройки Общие:

Настройки CD Рип:

Настройки конвертации во FLAC:

Доп. информация:

During J.S. Bach’s time in Leipzig, the musical activity of the church during the Easter period centred around Good Friday, and consequently the Passion performance was supposed to be the musical high point of the church calendar. As the writing and preparation of this took up a sizable proportion of the composer’s efforts, he organised the music for the other services to allow him to concentrate his time to that purpose. Bach therefore made use of his earlier works on the days around Good Friday, and this CD set, compiled from the outstanding series of recordings of the cantatas made by Ton Koopman and the Amsterdam Baroque Orchestra and Choir along with a fine cast of soloists, replicates the Easter programme – complete except for the Passion – that he presented during the first year of his tenure in Leipzig in 1724.
The cantatas he used give us a cross-section of the composer’s work from his early years up to the 1720s. BWV 4, for example, is among the earliest and dates probably from 1707, whereas BWV 6 was written in Leipzig some 17 years later.
Over the course of a forty year career, Ton Koopman has developed a reputation as one of the foremost interpreters of 17th and 18th century music. His ongoing recording cycle of the complete cantatas of J. S. Bach with the Amsterdam Baroque Orchestra and Choir, originally available on the Erato label but now released through Challenge Classics, has won him many plaudits and received amongst many other accolades a Gramophone Award and a Diapason d’Or.
Summary:
This compilation of cantatas, taken from the award winning series of recordings from Ton Koopman and the Amsterdam Baroque Orchestra, Choir and soloists, brings together a group of works which Bach is believed to have programmed for the Easter period of 1724.
[teatrix.ru].t20076.torrent 
Торрент: Зарегистрирован [ 2016-03-19 00:51 ] · B3EEFF3F3CCF45244FE6F18C5D204CD819ECEB2A

Скачать .torrent

Скачать

27 KB

Статус: проверено
Скачан: 0 раз
Размер: 658 MB
terms.php



Быстрый ответ

Имя:

      
Для отправки сообщений необходимо включить JavaScript
Показать сообщения:    

Текущее время: 07-Дек 19:30

Часовой пояс: UTC + 3


Вы можете начинать темы
Вы можете отвечать на сообщения
Вы не можете редактировать свои сообщения
Вы не можете удалять свои сообщения
Вы не можете голосовать в опросах
Вы не можете прикреплять файлы к сообщениям
Вы можете скачивать файлы