Наедине со всеми (Д.Диджиокас) [1993, Республика Беларусь, Драма, DVB-AVC] Национальный академический драматический театр им. Максима Горького, Минск


 

[Цитировать]

Наедине со всеми
Название театра: Национальный академический драматический театр им. Максима Горького, Минск
Страна: Республика Беларусь
Жанр: Драма
Год выпуска: 1993
Продолжительность: 2-а действия 00:50:22 + 00:45:42
Перевод: Не требуется
Язык: Русский
Режиссёр: Д.Диджиокас
В ролях:
Андрей Голубев – народный артист СССР Ростислав Янковский
Наташа Голубева, его жена – заслуженная артистка БССР Людмила Былинская
Описание: А.Гельман известен как автор так называемых «производственных пьес». И в пьесе «Наедине со всеми» тоже много говорится о трудностях и проблемах производства, но здесь уже в гораздо большей степени исследуется психология человеческого существования, поведения, прослеживается мысль об ответственности перед другими и каждого перед самим собой.
В центре пьесы – Наташа и Андрей Голубевы. Месяц назад в семье Голубевых случилось несчастье – их сын Алёша попал в больницу, ему отняли руки. Алёша проходил практику и вместе с бригадой строителей прокладывал дорогу, где и произошла авария. И вот завтра сына нужно забирать из больницы, а сегодня Наташа узнаёт, что по вине Андрея их сын стал инвалидом, потому что Андрей, начальник строительства, отдал распоряжение о строительстве дороги, прекрасно зная, что там проходит высоковольтная линия. Знал и пошёл на это, так как уже давно самым главным для него стало выполнение плана…
Наташа и Андрей говорят о сугубо личном, но за «личным» встают важные, не всегда легко и однозначно разрешимые вопросы общественной жизни.
Доп. информация:
Художник-постановщик – заслуженный деятель искусств БССР Ю.Тур
Премьера - 1981

Благодарность: исходник для данной раздачи, записан с цифрового наземного канала, т.е. DVB-Т
Запись потока *.ts с наземного цифрового телеканала "Беларусь 3", ремукс в *.mkv программой VideoReDo.
Семпл: http://rusfolder.com/42722722
Качество видео: DVB
Формат видео: MKV
Видео 1: AVC (H264), 720x576@785x576 (4:3), анаморф, 25 fps, 2 107 Kbps
Видео 2: AVC (H264), 720x576@785x576 (4:3), анаморф, 25 fps, 2 108 Kbps
Аудио: MP2, 256 kbps, 2 channels, 48 kHz

MediaInfo 1

General
Unique ID : 335559860021688655605530520216945815043 (0xFC727A6EEBB4A503894BA07F7FEBEE03)
Complete name : D:\Телеспектакли\Наедине со всеми (19хх)\Наедине со всеми (1993)\Наедине со всеми_01_(1993).mkv
Format : Matroska
Format version : Version 2
File size : 869 MiB
Duration : 50mn 22s
Overall bit rate : 2 411 Kbps
Writing application : Lavf52.64.2
Writing library : Lavf52.64.2
Video
ID : 1
Format : AVC
Format/Info : Advanced Video Codec
Format profile : Main@L3.0
Format settings, CABAC : Yes
Format settings, ReFrames : 4 frames
Format settings, GOP : M=4, N=24
Codec ID : V_MPEG4/ISO/AVC
Duration : 50mn 22s
Bit rate : 2 107 Kbps
Width : 720 pixels
Height : 576 pixels
Display aspect ratio : 4:3
Original display aspect ratio : 4:3
Frame rate mode : Constant
Frame rate : 25.000 fps
Standard : PAL
Color space : YUV
Chroma subsampling : 4:2:0
Bit depth : 8 bits
Scan type : MBAFF
Scan order : Top Field First
Bits/(Pixel*Frame) : 0.203
Stream size : 759 MiB (87%)
Default : Yes
Forced : No
Color primaries : BT.601 PAL
Transfer characteristics : BT.470 System B, BT.470 System G
Matrix coefficients : BT.601
Color range : Limited
Audio
ID : 2
Format : MPEG Audio
Format version : Version 1
Format profile : Layer 2
Codec ID : A_MPEG/L2
Codec ID/Hint : MP2
Duration : 50mn 22s
Bit rate mode : Constant
Bit rate : 256 Kbps
Channel(s) : 2 channels
Sampling rate : 48.0 KHz
Compression mode : Lossy
Stream size : 92.2 MiB (11%)
Language : Russian
Default : Yes
Forced : No

MediaInfo 2

General
Unique ID : 277616230577229913455214098805345898333 (0xD0DAF0EF50AF9C9075B460658FD64F5D)
Complete name : D:\Телеспектакли\Наедине со всеми (19хх)\Наедине со всеми (1993)\Наедине со всеми_02_(1993).mkv
Format : Matroska
Format version : Version 2
File size : 788 MiB
Duration : 45mn 42s
Overall bit rate : 2 412 Kbps
Writing application : Lavf52.64.2
Writing library : Lavf52.64.2
Video
ID : 1
Format : AVC
Format/Info : Advanced Video Codec
Format profile : Main@L3.0
Format settings, CABAC : Yes
Format settings, ReFrames : 4 frames
Format settings, GOP : M=4, N=24
Codec ID : V_MPEG4/ISO/AVC
Duration : 45mn 42s
Bit rate : 2 108 Kbps
Width : 720 pixels
Height : 576 pixels
Display aspect ratio : 4:3
Original display aspect ratio : 4:3
Frame rate mode : Constant
Frame rate : 25.000 fps
Standard : PAL
Color space : YUV
Chroma subsampling : 4:2:0
Bit depth : 8 bits
Scan type : MBAFF
Scan order : Top Field First
Bits/(Pixel*Frame) : 0.203
Stream size : 689 MiB (87%)
Default : Yes
Forced : No
Color primaries : BT.601 PAL
Transfer characteristics : BT.470 System B, BT.470 System G
Matrix coefficients : BT.601
Color range : Limited
Audio
ID : 2
Format : MPEG Audio
Format version : Version 1
Format profile : Layer 2
Codec ID : A_MPEG/L2
Codec ID/Hint : MP2
Duration : 45mn 42s
Bit rate mode : Constant
Bit rate : 256 Kbps
Channel(s) : 2 channels
Sampling rate : 48.0 KHz
Compression mode : Lossy
Stream size : 83.7 MiB (11%)
Language : Russian
Default : Yes
Forced : No



Показать сообщения:    

Текущее время: 11-Дек 07:16

Часовой пояс: UTC + 3


Вы не можете начинать темы
Вы не можете отвечать на сообщения
Вы не можете редактировать свои сообщения
Вы не можете удалять свои сообщения
Вы не можете голосовать в опросах
Вы не можете прикреплять файлы к сообщениям
Вы не можете скачивать файлы