(Classical) Dietrich Buxtehude - Une alchimie musicale - Raphaele Kennedy, Da Pacem - 2011, FLAC (image+.cue) lossless


 

[Цитировать]

Dietrich Buxtehude - Une alchimie musicale - Raphaële Kennedy, Da Pacem
Жанр: Classical
Страна-производитель диска: France
Год издания диска: 2011
Издатель (лейбл): K617
Номер по каталогу: K617227
Дата записи: 2010
Аудиокодек: FLAC
Тип рипа: image+.cue
Битрейт аудио: lossless
Продолжительность: 70:16
Источник: собственный рип
Наличие сканов в содержимом раздачи: да
Треклист:
Dietrich Buxtehude (c.1637-1707)
[1] O dulcis Jesu, Bux WV 83
[2] Ciacona, Bux WV 160
[3] O Clemens, Bux WV 82
[4] Praeludium, Bux WV 163
[5] Fallax mundus, Bux WV 28
[6] Sonata, Bux WV 266
[7] O Gottes Stadt, Bux WV 87
[8] Passacaglia, Bux WV 161
[9] Klag-lied, Bux WV 76
Исполнители:
Raphaële Kennedy soprano
Da Pacem

Лог создания рипа

Exact Audio Copy V1.0 beta 3 from 29. August 2011
EAC extraction logfile from 17. July 2014, 11:58
Raphaele Kennedy, Da Pacem / Buxtehude - Une alchimie musicale
Used drive : HL-DT-STDVDRRW GWA-4164B Adapter: 5 ID: 0
Read mode : Secure
Utilize accurate stream : Yes
Defeat audio cache : Yes
Make use of C2 pointers : No
Read offset correction : 102
Overread into Lead-In and Lead-Out : No
Fill up missing offset samples with silence : Yes
Delete leading and trailing silent blocks : No
Null samples used in CRC calculations : Yes
Used interface : Native Win32 interface for Win NT & 2000
Used output format : User Defined Encoder
Selected bitrate : 896 kBit/s
Quality : High
Add ID3 tag : No
Command line compressor : C:\Program Files\Exact Audio Copy\FLAC\FLAC.EXE
Additional command line options : -V -8 %source%
TOC of the extracted CD
Track | Start | Length | Start sector | End sector
---------------------------------------------------------
1 | 0:00.00 | 10:51.13 | 0 | 48837
2 | 10:51.13 | 4:23.18 | 48838 | 68580
3 | 15:14.31 | 7:20.27 | 68581 | 101607
4 | 22:34.58 | 6:55.18 | 101608 | 132750
5 | 29:30.01 | 9:29.50 | 132751 | 175475
6 | 38:59.51 | 8:35.06 | 175476 | 214106
7 | 47:34.57 | 9:13.51 | 214107 | 255632
8 | 56:48.33 | 5:15.61 | 255633 | 279318
9 | 62:04.19 | 8:15.59 | 279319 | 316502
Range status and errors
Selected range
Filename D:\temp\Music\K617227 - Buxtehude - Une alchimie musicale\Buxtehude - Une alchimie musicale.wav
Peak level 100.0 %
Extraction speed 2.9 X
Range quality 99.9 %
Test CRC 2C735AAA
Copy CRC 2C735AAA
Copy OK
No errors occurred
AccurateRip summary
Track 1 accurately ripped (confidence 2) [258FF214] (AR v2)
Track 2 accurately ripped (confidence 2) [AFEA6528] (AR v2)
Track 3 accurately ripped (confidence 2) [9FCA5112] (AR v2)
Track 4 accurately ripped (confidence 2) [45750B44] (AR v2)
Track 5 accurately ripped (confidence 2) [30C5A90E] (AR v2)
Track 6 accurately ripped (confidence 2) [DC52ECC0] (AR v2)
Track 7 accurately ripped (confidence 2) [41B48E56] (AR v2)
Track 8 accurately ripped (confidence 2) [13C5F1DF] (AR v2)
Track 9 accurately ripped (confidence 2) [3582042E] (AR v2)
All tracks accurately ripped
End of status report
==== Log checksum 41B0C9B07309B00321953E73D6F43751ED6DBF46CDAA6FA921BE2592A545A9FC ====



Показать сообщения:    

Текущее время: 05-Дек 21:33

Часовой пояс: UTC + 3


Вы не можете начинать темы
Вы не можете отвечать на сообщения
Вы не можете редактировать свои сообщения
Вы не можете удалять свои сообщения
Вы не можете голосовать в опросах
Вы не можете прикреплять файлы к сообщениям
Вы не можете скачивать файлы