Бунт Ихтиандра. Александр Беляев (Юрий Суходольский) [2006, биография, IPTVRip]


Статистика раздачи [Обновить пиров]
Размер:  531 MB   |    Зарегистрирован:  8 месяцев 17 дней   |    Скачан:  0 раз

Полного источника не было: Никогда

Личеров:  3  [  0 KB/s  ]   Подробная статистика пиров
 
   
 
 
 

[Цитировать]

Бунт Ихтиандра. Александр Беляев
Дата/Год выпуска: 2006
Страна: Россия
Жанр: биография
Продолжительность: 00:42:45
Перевод: Не требуется
Русские субтитры: нет
Оригинальная аудиодорожка: русский
Режиссер: Юрий Суходольский
Телеканал: ДовериеОписание: Александр Беляев, пожалуй, и сегодня является безусловным лидером по тиражам и известности среди писателей-фантастов. Его "Человек-амфибия" до сих пор занимает первое место среди самых читаемых произведений этого жанра. А фильм, снятый по этому роману в 1961 году, сталь культовым: его посмотрели 65 миллионов человек. Какой ценой заплатил Беляев за свое творчество? Почему этого человека окружали трагедии? Почему талантливые ученые из его книг, вмешивающиеся в самую ткань мироздания, очень похожи на средневековых чернокнижников?Сэмпл: https://www.sendspace.com/file/52w5g9
качество: IPTVRip (исходник в формате MPEG-2)
формат: AVI
Видео: Xvid 720x400 (16:9) 25fps ~1536kbps
Аудио: MP3 48000Hz stereo (2ch) 192kbps

MediaInfo

General
Complete name : I:\Мои раздачи\Бунт Ихтиандра. Александр Беляев.avi
Format : AVI
Format/Info : Audio Video Interleave
File size : 531 MiB
Duration : 42mn 45s
Overall bit rate : 1 737 Kbps
Video
ID : 0
Format : MPEG-4 Visual
Format profile : Advanced Simple@L5
Format settings, BVOP : Yes
Format settings, QPel : No
Format settings, GMC : No warppoints
Format settings, Matrix : Default (H.263)
Codec ID : XVID
Codec ID/Hint : XviD
Duration : 42mn 45s
Bit rate : 1 535 Kbps
Width : 720 pixels
Height : 400 pixels
Display aspect ratio : 16:9
Frame rate : 25.000 fps
Color space : YUV
Chroma subsampling : 4:2:0
Bit depth : 8 bits
Scan type : Progressive
Compression mode : Lossy
Bits/(Pixel*Frame) : 0.213
Stream size : 469 MiB (88%)
Writing library : XviD 64
Audio
ID : 1
Format : MPEG Audio
Format version : Version 1
Format profile : Layer 3
Mode : Joint stereo
Mode extension : MS Stereo
Codec ID : 55
Codec ID/Hint : MP3
Duration : 42mn 45s
Bit rate mode : Constant
Bit rate : 192 Kbps
Channel(s) : 2 channels
Sampling rate : 48.0 KHz
Compression mode : Lossy
Stream size : 58.7 MiB (11%)
Alignment : Split accross interleaves
Interleave, duration : 40 ms (1.00 video frame)
Interleave, preload duration : 500 ms
Writing library : LAME3.98.2

Скриншоты

[teatrix.ru].t20087.torrent 
Торрент: Зарегистрирован [ 2016-03-19 00:56 ] · 82473C172D12A866BCAAA313559135DCF5143F69

Скачать .torrent

Скачать

11 KB

Статус: проверено
Скачан: 0 раз
Размер: 531 MB
terms.php



Быстрый ответ

Имя:

      
Для отправки сообщений необходимо включить JavaScript
Показать сообщения:    

Текущее время: 05-Дек 13:34

Часовой пояс: UTC + 3


Вы можете начинать темы
Вы можете отвечать на сообщения
Вы не можете редактировать свои сообщения
Вы не можете удалять свои сообщения
Вы не можете голосовать в опросах
Вы не можете прикреплять файлы к сообщениям
Вы можете скачивать файлы