Ален Делон: интервью о фильме Мелодия из подвала / Alain Delon interview Melodie en sous-sol (Марио Бона / Mario Beunat) [07.04.1963, документальный, кинематограф, TVRip] Original (Fre) + Sub (Rus)


Статистика раздачи [Обновить пиров]
Размер:  13 MB   |    Зарегистрирован:  8 месяцев 22 дня   |    Скачан:  0 раз

Полного источника не было: Никогда

Личеров:  12  [  0 KB/s  ]   Подробная статистика пиров
 
   
 
 
 

[Цитировать]

Ален Делон: интервью о фильме "Мелодия из подвала"
Alain Delon interview "Mélodie en sous-sol"- Дата/Год выпуска: 07.04.1963
Страна: Франция
Жанр: документальный, кинематограф
Продолжительность: 00:00:48
Перевод: Субтитры
Русские субтитры: естьФормат субтитров: softsub (SRT)
Доп. информация о субтитрах: перевод Клеопатрa VII , инициатор Aleks Punk
Оригинальная аудиодорожка: французский
Режиссер: Марио Бона / Mario Beunat
Телеканал: ina
Описание: Небольшое интервью Алена Делона каналу ORTF о работе с Жаном Габеном на съемках фильма "Мелодия из подвала" реж. Анри Вернея. Интервью берет журналист Марио Бона / Mario Beunat. Отрывок из телепередачи "Часовые новости: Киносъемки / Journal télévisé de 13h: tournage du film". Эфир 07.04.1963 года.
Доп. информация: За предоставленный материал благодарность Aleks Punk.

качество: TVRip
формат: MKV
Видео: AVC (H.264), 640x480 (4:3), 25 fps, ~2000 kbps avg, 0.260 bit/pixel
Аудио: AC3, 2 ch, 48 kHz, ~192.00 kbps avg

Субтитры

1
00:00:00,602 --> 00:00:06,714
Ален Делон, съемка с Жаном Габеном -
огромный подарок для молодого актера.
2
00:00:07,516 --> 00:00:10,716
Вы получили этот шанс в фильме
"Мелодия из подвала".
3
00:00:10,916 --> 00:00:13,996
Опишите Ваше личное впечатление
от этого опыта.
4
00:00:14,196 --> 00:00:17,405
Я многому научился, месье Габен
учил меня всему, учил моей работе.
5
00:00:17,505 --> 00:00:19,792
Я наблюдал за ним в действии и он
показал мне предельную точность.
6
00:00:19,892 --> 00:00:24,111
Он большой профессионал
с огромной добросовестностью.
7
00:00:24,211 --> 00:00:29,919
Он всегда приходит на съемки точно вовремя,
и всегда последний, кто уходит с них.
8
00:00:30,119 --> 00:00:33,077
И мы все очень польщены
быть с ним здесь все это время.
9
00:00:33,277 --> 00:00:37,716
Глядя этот фильм, можно ли сказать,
что у Вас - ведущая роль?
10
00:00:37,916 --> 00:00:41,300
Нет, я не думаю. Мы не может сказать,
что у Габена неподходящая роль,
11
00:00:41,500 --> 00:00:45,319
но какие бы то ни были
роли и результаты,
12
00:00:45,519 --> 00:00:47,542
это была наша совместная
с Габеном работа.

MediaInfo

Общее
Уникальный идентификатор : 190430104322043962457018083458883004360 (0x8F438107A10D49AB9CAABF6FA0CC27C8)
Полное имя : E:\My Torrents 2\[apreder]Alain_Delon_interview_Melodie_en_sous-sol(07.04.1963)TVRip.mkv
Формат : Matroska
Версия формата : Version 2
Размер файла : 12,6 Мбайт
Продолжительность : 48 с.
Общий поток : 2195 Кбит/сек
Дата кодирования : UTC 2015-01-12 15:29:19
Программа кодирования : mkvmerge v7.5.0 ('Glass Culture') 64bit built on Jan 4 2015 16:48:44
Библиотека кодирования : libebml v1.3.1 + libmatroska v1.4.2
Видео
Идентификатор : 1
Формат : AVC
Формат/Информация : Advanced Video Codec
Профиль формата : High@L4.1
Параметр CABAC формата : Да
Параметр ReFrames формата : 16 кадров
Идентификатор кодека : V_MPEG4/ISO/AVC
Продолжительность : 48 с.
Битрейт : 2000 Кбит/сек
Ширина : 640 пикселей
Высота : 480 пикселей
Соотношение сторон : 4:3
Режим частоты кадров : Постоянный
Частота кадров : 25,000 кадров/сек
Цветовое пространство : YUV
Субдискретизация насыщенности : 4:2:0
Битовая глубина : 8 бит
Тип развёртки : Прогрессивная
Бит/(Пиксели*Кадры) : 0.260
Размер потока : 11,2 Мбайт (89%)
Библиотека кодирования : x264 core 144 r2525 40bb568
Настройки программы : cabac=1 / ref=16 / deblock=1:-1:-1 / analyse=0x3:0x133 / me=umh / subme=10 / psy=1 / psy_rd=1.00:0.15 / mixed_ref=1 / me_range=24 / chroma_me=1 / trellis=2 / 8x8dct=1 / cqm=0 / deadzone=21,11 / fast_pskip=1 / chroma_qp_offset=-3 / threads=6 / lookahead_threads=1 / sliced_threads=0 / nr=0 / decimate=1 / interlaced=0 / bluray_compat=0 / constrained_intra=0 / bframes=8 / b_pyramid=2 / b_adapt=2 / b_bias=0 / direct=3 / weightb=1 / open_gop=0 / weightp=2 / keyint=250 / keyint_min=25 / scenecut=40 / intra_refresh=0 / rc_lookahead=60 / rc=2pass / mbtree=1 / bitrate=2000 / ratetol=1.0 / qcomp=0.60 / qpmin=0 / qpmax=69 / qpstep=4 / cplxblur=20.0 / qblur=0.5 / vbv_maxrate=62500 / vbv_bufsize=78125 / nal_hrd=none / filler=0 / ip_ratio=1.40 / aq=1:1.00
Default : Да
Forced : Нет
Аудио
Идентификатор : 2
Формат : AC-3
Формат/Информация : Audio Coding 3
Расширение режима : CM (complete main)
Параметр Endianness формата : Big
Идентификатор кодека : A_AC3
Продолжительность : 48 с.
Вид битрейта : Постоянный
Битрейт : 192 Кбит/сек
Каналы : 2 канала
Расположение каналов : Front: L R
Частота : 48,0 КГц
Битовая глубина : 16 бит
Метод сжатия : С потерями
Размер потока : 1,10 Мбайт (9%)
Язык : French
Default : Да
Forced : Нет
Текст
Идентификатор : 3
Формат : UTF-8
Идентификатор кодека : S_TEXT/UTF8
Идентификатор кодека/Информация : UTF-8 Plain Text
Язык : Russian
Default : Да
Forced : Нет

Скриншоты

Резервные скриншоты

-[2'047]
[teatrix.ru].t20088.torrent 
Торрент: Зарегистрирован [ 2016-03-19 00:55 ] · F86BDA6B9085415423BF29517116BF8308EA737C

Скачать .torrent

Скачать

4 KB

Статус: проверено
Скачан: 0 раз
Размер: 13 MB
terms.php



Показать сообщения:    

Текущее время: 10-Дек 10:01

Часовой пояс: UTC + 3


Вы не можете начинать темы
Вы не можете отвечать на сообщения
Вы не можете редактировать свои сообщения
Вы не можете удалять свои сообщения
Вы не можете голосовать в опросах
Вы не можете прикреплять файлы к сообщениям
Вы можете скачивать файлы