Спецэффекты в кино. Создавая невозможное / Студия ILM: Сотворение невозможного / Industrial Light & Magic: Creating the Impossible (Лесли Айверкс / Leslie Iwerks) [2010, документальный, кинематограф, DVB] MVO (Amedia)


Статистика раздачи [Обновить пиров]
Размер:  1.09 GB   |    Зарегистрирован:  8 месяцев 23 дня   |    Скачан:  0 раз

Полного источника не было: Никогда

Личеров:  6  [  0 KB/s  ]   Подробная статистика пиров
 
   
 
 
 

[Цитировать]

Спецэффекты в кино. Создавая невозможное
Industrial Light & Magic: Creating the Impossible- Дата/Год выпуска: 2010
Страна: США
Жанр: документальный, кинематограф
Продолжительность: 00:57:16
Перевод: Профессиональный (многоголосый закадровый)
Доп. инфо о переводе: Amedia
Русские субтитры: нет
Режиссер: Лесли Айверкс / Leslie Iwerks
Телеканал: Amedia 1В ролях: Том Круз (рассказчик), Джордж Лукас, Стивен Спилберг, Рон Ховард, Джерри Брукхаймер, Сэмюэл Л. Джексон, Робин Уильямс, Сет Грин
Описание: Студия Industrial Light & Magic была создана Джорджем Лукасом для создания визуальных эффектов в "Звездных войнах". А сейчас на ее счету более 300 фильмов. ILM продолжает оставаться ведущей в своей области. С ней работали и работают Джордж Лукас, Стивен Спилберг, Джеймс Кэмерон, Роберт Земекис и многие другие выдающиеся режиссеры.-Режиссер фильма Лесли Айверкс, известный документалист и продюсер, внучка великого аниматора Аба Айверкса (соавтора Микки-Мауса), тесно связана со студией компьютерной анимации "Пиксар", отпочковавшейся от ILM. Ее отец и дядя (сыновья Аба) - также кинематографисты. Работы Лесли Айверкс номинировались на премии "Эмми" и "Оскар". (kot48)-
Доп. информация: DVB-S
Участник Biografilm Festival (Italy) 2011.

качество: DVB
формат: MKV
Видео: MPEG Video 2, 720x576@1024x576 (16:9), 25 fps, ~2469 kbps avg, 0.238 bit/pixel
Аудио: MPEG Audio 2, 2 ch, 48 kHz, ~192.00 kbps avg

MediaInfo

Общее
Уникальный идентификатор : 230635379300990094865069476787642272269 (0xAD82C2217640DDCEA40AB2C4C5318A0D)
Полное имя : E:\My Torrents 2\[apreder]Industrial_Light_&_Magic_Creating_the_Impossible(2010)DVB.mkv
Формат : Matroska
Версия формата : Version 2
Размер файла : 1,09 Гбайт
Продолжительность : 57 м.
Режим общего битрейта : Переменный
Общий поток : 2715 Кбит/сек
Дата кодирования : UTC 2015-01-12 17:15:00
Программа кодирования : mkvmerge v7.5.0 ('Glass Culture') 64bit built on Jan 4 2015 16:48:44
Библиотека кодирования : libebml v1.3.1 + libmatroska v1.4.2
Видео
Идентификатор : 1
Формат : MPEG Video
Версия формата : Version 2
Профиль формата : Main@Main
Параметр BVOP формата : Да
Параметр матрицы формата : Выборочная
Параметр GOP формата : Variable
Format_Settings_PictureStructure : Frame
Идентификатор кодека : V_MPEG2
Идентификатор кодека/Информация : MPEG 1 or 2 Video
Продолжительность : 57 м.
Вид битрейта : Переменный
Битрейт : 2469 Кбит/сек
Ширина : 720 пикселей
Высота : 576 пикселей
Соотношение сторон : 16:9
Режим частоты кадров : Постоянный
Частота кадров : 25,000 кадров/сек
Стандарт вещания : PAL
Цветовое пространство : YUV
Субдискретизация насыщенности : 4:2:0
Битовая глубина : 8 бит
Тип развёртки : Чересстрочная
Порядок развёртки : Верхнее поле первое
Метод сжатия : С потерями
Бит/(Пиксели*Кадры) : 0.238
Временной код первого кадра : 00:00:00:00
Оригинал временного кода : Group of pictures header
Размер потока : 1011 Мбайт (91%)
Default : Да
Forced : Нет
Gop_OpenClosed_FirstFrame : Closed
Аудио
Идентификатор : 2
Формат : MPEG Audio
Версия формата : Version 1
Профиль формата : Layer 2
Идентификатор кодека : A_MPEG/L2
Идентификатор кодека/Подсказка : MP2
Продолжительность : 57 м.
Вид битрейта : Постоянный
Битрейт : 192 Кбит/сек
Каналы : 2 канала
Частота : 48,0 КГц
Метод сжатия : С потерями
Размер потока : 78,6 Мбайт (7%)
Язык : Russian
Default : Да
Forced : Нет

Скриншоты

Резервные скриншоты

-[2'049]
[teatrix.ru].t20089.torrent 
Торрент: Зарегистрирован [ 2016-03-19 00:56 ] · DD039B3427A25E8180DD106A4BCC78D18A7D3B1C

Скачать .torrent

Скачать

11 KB

Статус: проверено
Скачан: 0 раз
Размер: 1.09 GB
terms.php



Показать сообщения:    

Текущее время: 11-Дек 11:07

Часовой пояс: UTC + 3


Вы не можете начинать темы
Вы не можете отвечать на сообщения
Вы не можете редактировать свои сообщения
Вы не можете удалять свои сообщения
Вы не можете голосовать в опросах
Вы не можете прикреплять файлы к сообщениям
Вы можете скачивать файлы