(Classical) Bach, J.S. - Magnificat, Oster-Oratorium (Karl Munchinger; Elly Ameling, Hanneke van Bork, Helen Watts, Werner Krenn, Tom Krause) - ?, FLAC (image+.cue) lossless


Статистика раздачи [Обновить пиров]
Размер:  365 MB   |    Зарегистрирован:  8 месяцев 19 дней   |    Скачан:  0 раз

Полного источника не было: Никогда

Личеров:  6  [  0 KB/s  ]   Подробная статистика пиров
 
   
 
 
 

[Цитировать]

Bach, J.S. - Magnificat, Oster-Oratorium (Karl Munchinger; Elly Ameling, Hanneke van Bork, Helen Watts, Werner Krenn, Tom Krause)
Жанр: Classical
Страна-производитель диска: Российская Федерация
Год издания диска: ?
Издатель (лейбл): Limited Edition
Номер по каталогу: -
Дата записи: 1968
Аудиокодек: FLAC
Тип рипа: image+.cue
Битрейт аудио: lossless
Продолжительность: 78:54
Источник: собственный рип
сайт-источник/ник/другое: Из личной коллекции
Наличие сканов в содержимом раздачи: да
Треклист:
J.S. Bach:
1-11. Oster-Oratorium, BWV 249
12-22. Magnificat, BWV 243
Исполнители:
Karl Münchinger - conductor
Wiener Akademiechor (Chorus Master: Xaver Meyer) / Stuttgarter Kammerorchester
Sopranos: Elly Ameling, Hanneke van Bork; Contralto: Helen Watts; Tenor: Werner Krenn; Bass: Tom Krause

Лог создания рипа

Exact Audio Copy V1.0 beta 3 from 29. August 2011
EAC extraction logfile from 29. December 2014, 20:46
Bach Johann Sebastian / Passionen Oster-Oratorium Kantaten (CD2)
Used drive : HL-DT-STDVDRAM GSA-T40N Adapter: 0 ID: 0
Read mode : Secure
Utilize accurate stream : Yes
Defeat audio cache : Yes
Make use of C2 pointers : No
Read offset correction : 667
Overread into Lead-In and Lead-Out : No
Fill up missing offset samples with silence : Yes
Delete leading and trailing silent blocks : No
Null samples used in CRC calculations : Yes
Used interface : Native Win32 interface for Win NT & 2000
Used output format : User Defined Encoder
Selected bitrate : 32 kBit/s
Quality : High
Add ID3 tag : No
Command line compressor : C:\Program Files\Exact Audio Copy\Flac\flac.exe
Additional command line options : -V -8 -T "Date=%year%" -T "Genre=%genre%" %source%
TOC of the extracted CD
Track | Start | Length | Start sector | End sector
---------------------------------------------------------
1 | 0:00.00 | 4:11.32 | 0 | 18856
2 | 4:11.32 | 5:09.20 | 18857 | 42051
3 | 9:20.52 | 5:17.23 | 42052 | 65849
4 | 14:38.00 | 1:24.12 | 65850 | 72161
5 | 16:02.12 | 12:01.18 | 72162 | 126254
6 | 28:03.30 | 1:11.50 | 126255 | 131629
7 | 29:15.05 | 6:55.20 | 131630 | 162774
8 | 36:10.25 | 0:58.27 | 162775 | 167151
9 | 37:08.52 | 7:13.60 | 167152 | 199686
10 | 44:22.37 | 0:47.65 | 199687 | 203276
11 | 45:10.27 | 2:46.20 | 203277 | 215746
12 | 47:56.47 | 3:18.00 | 215747 | 230596
13 | 51:14.47 | 2:32.35 | 230597 | 242031
14 | 53:47.07 | 4:21.45 | 242032 | 261651
15 | 58:08.52 | 2:20.18 | 261652 | 272169
16 | 60:28.70 | 4:17.62 | 272170 | 291506
17 | 64:46.57 | 2:01.55 | 291507 | 300636
18 | 66:48.37 | 2:08.05 | 300637 | 310241
19 | 68:56.42 | 3:11.33 | 310242 | 324599
20 | 72:08.00 | 2:12.05 | 324600 | 334504
21 | 74:20.05 | 2:02.45 | 334505 | 343699
22 | 76:22.50 | 2:32.05 | 343700 | 355104
Range status and errors
Selected range
Filename D:\Rip\Bach,J.S.Magnificat,Oster-Oratorium-Karl_Munchinger,1969\Bach Johann Sebastian - Passionen Oster-Oratorium Kantaten (CD2).wav
Peak level 91.8 %
Extraction speed 4.4 X
Range quality 100.0 %
Test CRC 318477FD
Copy CRC 318477FD
Copy OK
No errors occurred
AccurateRip summary
Track 1 cannot be verified as accurate (confidence 4) [4096A7FA], AccurateRip returned [0F4E76CA] (AR v2)
Track 2 cannot be verified as accurate (confidence 4) [63346FDD], AccurateRip returned [44792222] (AR v2)
Track 3 cannot be verified as accurate (confidence 4) [0D5FC375], AccurateRip returned [5C893060] (AR v2)
Track 4 cannot be verified as accurate (confidence 4) [93172A2A], AccurateRip returned [C511FFDB] (AR v2)
Track 5 cannot be verified as accurate (confidence 4) [93459458], AccurateRip returned [276702F0] (AR v2)
Track 6 cannot be verified as accurate (confidence 4) [D794BF53], AccurateRip returned [DFF1B0A3] (AR v2)
Track 7 cannot be verified as accurate (confidence 4) [A846BC8F], AccurateRip returned [7C99ADAC] (AR v2)
Track 8 cannot be verified as accurate (confidence 4) [22123520], AccurateRip returned [BF170781] (AR v2)
Track 9 cannot be verified as accurate (confidence 4) [05E5799A], AccurateRip returned [9085BE33] (AR v2)
Track 10 cannot be verified as accurate (confidence 4) [AA4D2F3C], AccurateRip returned [CFB8592C] (AR v2)
Track 11 cannot be verified as accurate (confidence 4) [264FFACB], AccurateRip returned [292751E4] (AR v2)
Track 12 cannot be verified as accurate (confidence 4) [B8CABBE0], AccurateRip returned [2A5CF08E] (AR v2)
Track 13 cannot be verified as accurate (confidence 3) [A30F2ED1], AccurateRip returned [2D8F2A21] (AR v2)
Track 14 cannot be verified as accurate (confidence 4) [6CBAD038], AccurateRip returned [E71E5B69] (AR v2)
Track 15 cannot be verified as accurate (confidence 4) [29382827], AccurateRip returned [7E0639FF] (AR v2)
Track 16 cannot be verified as accurate (confidence 4) [55BA95A3], AccurateRip returned [F90CB089] (AR v2)
Track 17 cannot be verified as accurate (confidence 4) [3DEDE19B], AccurateRip returned [9C7E9A05] (AR v2)
Track 18 cannot be verified as accurate (confidence 4) [345C02AB], AccurateRip returned [3327782A] (AR v2)
Track 19 cannot be verified as accurate (confidence 4) [6FDDF3A0], AccurateRip returned [F6CE9450] (AR v2)
Track 20 cannot be verified as accurate (confidence 4) [B82CCA9C], AccurateRip returned [822D9DDA] (AR v2)
Track 21 cannot be verified as accurate (confidence 4) [BA24EF5C], AccurateRip returned [D59199A7] (AR v2)
Track 22 cannot be verified as accurate (confidence 4) [780FCF87], AccurateRip returned [8B1BB715] (AR v2)
No tracks could be verified as accurate
You may have a different pressing from the one(s) in the database
End of status report
==== Log checksum 5AA3840852020B107139655A31D52440753501B217613F434046143BBB7B3375 ====

Содержание индексной карты (.CUE)

REM GENRE Classical
REM DATE 1969
REM DISCID 4A127E16
REM COMMENT "ExactAudioCopy v1.0b3"
PERFORMER "Bach Johann Sebastian"
TITLE "Passionen Oster-Oratorium Kantaten (CD2)"
FILE "Bach Johann Sebastian - Passionen Oster-Oratorium Kantaten (CD2).flac" WAVE
TRACK 01 AUDIO
TITLE "Oster-Oratorium BWV 249 Sinfonia"
PERFORMER "Bach Johann Sebastian"
INDEX 01 00:00:00
TRACK 02 AUDIO
TITLE "Oster-Oratorium BWV 249 Adagio"
PERFORMER "Bach Johann Sebastian"
INDEX 01 04:11:32
TRACK 03 AUDIO
TITLE "Oster-Oratorium BWV 249 Kommt, eilet und laufet"
PERFORMER "Bach Johann Sebastian"
INDEX 01 09:20:52
TRACK 04 AUDIO
TITLE "Oster-Oratorium BWV 249 O kalter Manner Sinn"
PERFORMER "Bach Johann Sebastian"
INDEX 01 14:38:00
TRACK 05 AUDIO
TITLE "Oster-Oratorium BWV 249 Seele, deine Spezereien"
PERFORMER "Bach Johann Sebastian"
INDEX 01 16:02:12
TRACK 06 AUDIO
TITLE "Oster-Oratorium BWV 249 Hier ist die Gruft"
PERFORMER "Bach Johann Sebastian"
INDEX 00 28:02:15
INDEX 01 28:03:30
TRACK 07 AUDIO
TITLE "Oster-Oratorium BWV 249 Sanfte soll mein Todeskummer"
PERFORMER "Bach Johann Sebastian"
INDEX 01 29:15:05
TRACK 08 AUDIO
TITLE "Oster-Oratorium BWV 249 Indessen seufzen wir"
PERFORMER "Bach Johann Sebastian"
INDEX 01 36:10:25
TRACK 09 AUDIO
TITLE "Oster-Oratorium BWV 249 Saget, saget mir geschwinde"
PERFORMER "Bach Johann Sebastian"
INDEX 01 37:08:52
TRACK 10 AUDIO
TITLE "Oster-Oratorium BWV 249 Wir sind erfreut"
PERFORMER "Bach Johann Sebastian"
INDEX 00 44:21:57
INDEX 01 44:22:37
TRACK 11 AUDIO
TITLE "Oster-Oratorium BWV 249 Preis und Dank"
PERFORMER "Bach Johann Sebastian"
INDEX 01 45:10:27
TRACK 12 AUDIO
TITLE "Magnificat D-dur Magnificat anima mea"
PERFORMER "Bach Johann Sebastian"
INDEX 00 47:52:25
INDEX 01 47:56:47
TRACK 13 AUDIO
TITLE "Magnificat D-dur Et exsultavit spiritus meus"
PERFORMER "Bach Johann Sebastian"
INDEX 01 51:14:47
TRACK 14 AUDIO
TITLE "Magnificat D-dur Quia respexit humilitatem"
PERFORMER "Bach Johann Sebastian"
INDEX 01 53:47:07
TRACK 15 AUDIO
TITLE "Magnificat D-dur Quia fecit mihi magna"
PERFORMER "Bach Johann Sebastian"
INDEX 00 58:07:10
INDEX 01 58:08:52
TRACK 16 AUDIO
TITLE "Magnificat D-dur Et misericordia"
PERFORMER "Bach Johann Sebastian"
INDEX 01 60:28:70
TRACK 17 AUDIO
TITLE "Magnificat D-dur Fecit potentiam"
PERFORMER "Bach Johann Sebastian"
INDEX 01 64:46:57
TRACK 18 AUDIO
TITLE "Magnificat D-dur Deposuit potentes"
PERFORMER "Bach Johann Sebastian"
INDEX 01 66:48:37
TRACK 19 AUDIO
TITLE "Magnificat D-dur Esurientes implevit bonis"
PERFORMER "Bach Johann Sebastian"
INDEX 00 68:54:45
INDEX 01 68:56:42
TRACK 20 AUDIO
TITLE "Magnificat D-dur Suscepit Israel"
PERFORMER "Bach Johann Sebastian"
INDEX 00 72:06:17
INDEX 01 72:08:00
TRACK 21 AUDIO
TITLE "Magnificat D-dur Sicut locutus est"
PERFORMER "Bach Johann Sebastian"
INDEX 00 74:19:17
INDEX 01 74:20:05
TRACK 22 AUDIO
TITLE "Magnificat D-dur Gloria Patri"
PERFORMER "Bach Johann Sebastian"
INDEX 01 76:22:50
Доп. информация: Recorded at Schloss Ludwigsburg, Germany, May 1968.
[teatrix.ru].t20092.torrent 
Торрент: Зарегистрирован [ 2016-03-19 00:57 ] · 73A832BDBA3613D5D4C2405FCC630EE72CA18767

Скачать .torrent

Скачать

15 KB

Статус: проверено
Скачан: 0 раз
Размер: 365 MB
terms.php



Быстрый ответ

Имя:

      
Для отправки сообщений необходимо включить JavaScript
Показать сообщения:    

Текущее время: 07-Дек 23:20

Часовой пояс: UTC + 3


Вы можете начинать темы
Вы можете отвечать на сообщения
Вы не можете редактировать свои сообщения
Вы не можете удалять свои сообщения
Вы не можете голосовать в опросах
Вы не можете прикреплять файлы к сообщениям
Вы можете скачивать файлы