(Classical) Mozart - Vepres, Exsultate Jubilate und Kronungsmesse (Theodor Guschlbauer) - ?, FLAC (image+.cue) lossless


Статистика раздачи [Обновить пиров]
Размер:  320 MB   |    Зарегистрирован:  8 месяцев 16 дней   |    Скачан:  1 раз

Полного источника не было: 1 месяц 22 дня

Личеров:  4  [  0 KB/s  ]   Подробная статистика пиров
 
   
 
 
 

[Цитировать]

Mozart - Vepres, Exsultate Jubilate und Kronungsmesse (Theodor Guschlbauer)
Жанр: Classical
Страна-производитель диска: France
Год издания диска: ?
Издатель (лейбл): Erato
Номер по каталогу: ECD 55007
Дата записи: 1966, 1967, 1978
Аудиокодек: FLAC
Тип рипа: image+.cue
Битрейт аудио: lossless
Продолжительность: 69:10
Источник: собственный рип
сайт-источник/ник/другое: Из личной коллекции
Наличие сканов в содержимом раздачи: да
Треклист:
Mozart:
1-6. Vesperae Solonnes, KV 339
7. Exsultate, Jubilate, KV 165
8-13. Kronungsmesse, KV 317
Исполнители:
Marie-Claire Alain Organ
Anne Bartelloni Alto (Vocals)
Monika Bergener Alto (Vocals)
Philippe Caillard Chorale Choir/Chorus
Michael Cousins Tenor (Vocal)
Heinz-Klaus Ecker Bass (Vocal)
Rotraud Hansmann Soprano (Vocal)
Michel Sénéchal Tenor (Vocal)
Roger Soyer Bass (Vocal)
Vienna Baroque Ensemble Ensemble
Patricia Wise Soprano (Vocal)
Gulbenkian Foundation Chamber Orchestra, Lisbon Orchestra
Gulbenkian Foundation Chorus, Lisbon Choir/Chorus
Theodor Guschlbauer Conductor

Лог создания рипа

Exact Audio Copy V1.0 beta 3 from 29. August 2011
EAC extraction logfile from 28. November 2014, 20:22
Mozart, Wolfgang Amadeus / Vepres, Exsultate Jubilate und Krönungsmesse
Used drive : HL-DT-STDVDRAM GSA-T40N Adapter: 0 ID: 0
Read mode : Secure
Utilize accurate stream : Yes
Defeat audio cache : Yes
Make use of C2 pointers : No
Read offset correction : 667
Overread into Lead-In and Lead-Out : No
Fill up missing offset samples with silence : Yes
Delete leading and trailing silent blocks : No
Null samples used in CRC calculations : Yes
Used interface : Native Win32 interface for Win NT & 2000
Used output format : User Defined Encoder
Selected bitrate : 32 kBit/s
Quality : High
Add ID3 tag : No
Command line compressor : C:\Program Files\Exact Audio Copy\Flac\flac.exe
Additional command line options : -V -8 -T "Date=%year%" -T "Genre=%genre%" %source%
TOC of the extracted CD
Track | Start | Length | Start sector | End sector
---------------------------------------------------------
1 | 0:00.33 | 3:58.72 | 33 | 17954
2 | 3:59.30 | 4:54.05 | 17955 | 40009
3 | 8:53.35 | 4:40.45 | 40010 | 61054
4 | 13:34.05 | 4:18.50 | 61055 | 80454
5 | 17:52.55 | 4:34.60 | 80455 | 101064
6 | 22:27.40 | 5:00.55 | 101065 | 123619
7 | 27:28.20 | 15:18.20 | 123620 | 192489
8 | 42:46.40 | 3:18.18 | 192490 | 207357
9 | 46:04.58 | 4:47.37 | 207358 | 228919
10 | 50:52.20 | 6:37.63 | 228920 | 258757
11 | 57:30.08 | 1:47.25 | 258758 | 266807
12 | 59:17.33 | 3:28.67 | 266808 | 282474
13 | 62:46.25 | 6:25.10 | 282475 | 311359
Range status and errors
Selected range
Filename D:\Rip\Mozart.Vepres,Exsultate_Jubilate_und_Kronungsmesse-Theodor_Guschlbauer,1966,1867,1978(Erato,55007)\Mozart, Wolfgang Amadeus - Vepres, Exsultate Jubilate und Krönungsmesse.wav
Peak level 82.6 %
Extraction speed 3.9 X
Range quality 100.0 %
Test CRC 9B2AAA14
Copy CRC 9B2AAA14
Copy OK
No errors occurred
AccurateRip summary
Track 1 accurately ripped (confidence 6) [7633F56A] (AR v1)
Track 2 accurately ripped (confidence 6) [CF47D1F7] (AR v1)
Track 3 accurately ripped (confidence 6) [15079BBA] (AR v1)
Track 4 accurately ripped (confidence 6) [DE833703] (AR v1)
Track 5 accurately ripped (confidence 6) [A9A67CE0] (AR v1)
Track 6 accurately ripped (confidence 5) [37D10552] (AR v1)
Track 7 accurately ripped (confidence 5) [6D77F2C0] (AR v1)
Track 8 accurately ripped (confidence 6) [244F9005] (AR v1)
Track 9 accurately ripped (confidence 6) [78F35AA6] (AR v1)
Track 10 accurately ripped (confidence 6) [03FB51B4] (AR v1)
Track 11 accurately ripped (confidence 5) [25C0CE79] (AR v1)
Track 12 accurately ripped (confidence 5) [7F6B3B40] (AR v1)
Track 13 accurately ripped (confidence 5) [B95BFB76] (AR v1)
All tracks accurately ripped
End of status report
==== Log checksum 63724FD3ABC92BD7D9CCA9924ABCA3979E2FBF701517E544E8C7D3A4D4243C41 ====

Содержание индексной карты (.CUE)

REM GENRE "Geistliche Musik"
REM DATE 1978
REM DISCID C010370D
REM COMMENT "ExactAudioCopy v1.0b3"
PERFORMER "Mozart, Wolfgang Amadeus"
TITLE "Vepres, Exsultate Jubilate und Kronungsmesse"
FILE "Mozart, Wolfgang Amadeus - Vepres, Exsultate Jubilate und Kronungsmesse.flac" WAVE
TRACK 01 AUDIO
TITLE "Vesperae Solonnes, KV 339: Dixit Dominus"
PERFORMER "Mozart, Wolfgang Amadeus"
INDEX 00 00:00:00
INDEX 01 00:00:33
TRACK 02 AUDIO
TITLE "Vesperae Solonnes, KV 339: Confitebor"
PERFORMER "Mozart, Wolfgang Amadeus"
INDEX 00 03:56:20
INDEX 01 03:59:30
TRACK 03 AUDIO
TITLE "Vesperae Solonnes, KV 339: Beatus Vir"
PERFORMER "Mozart, Wolfgang Amadeus"
INDEX 00 08:49:53
INDEX 01 08:53:35
TRACK 04 AUDIO
TITLE "Vesperae Solonnes, KV 339: Laudate Pueri"
PERFORMER "Mozart, Wolfgang Amadeus"
INDEX 00 13:32:25
INDEX 01 13:34:05
TRACK 05 AUDIO
TITLE "Vesperae Solonnes, KV 339: Laudate Dominus"
PERFORMER "Mozart, Wolfgang Amadeus"
INDEX 00 17:49:60
INDEX 01 17:52:55
TRACK 06 AUDIO
TITLE "Vesperae Solonnes, KV 339: Magnificat"
PERFORMER "Mozart, Wolfgang Amadeus"
INDEX 00 22:23:58
INDEX 01 22:27:40
TRACK 07 AUDIO
TITLE "Exsultate, Jubilate, KV 165"
PERFORMER "Mozart, Wolfgang Amadeus"
INDEX 00 27:16:63
INDEX 01 27:28:20
TRACK 08 AUDIO
TITLE "Kronungsmesse, KV 317: Kyrie"
PERFORMER "Mozart, Wolfgang Amadeus"
INDEX 00 42:32:60
INDEX 01 42:46:40
TRACK 09 AUDIO
TITLE "Kronungsmesse, KV 317: Gloria"
PERFORMER "Mozart, Wolfgang Amadeus"
INDEX 00 46:02:25
INDEX 01 46:04:58
TRACK 10 AUDIO
TITLE "Kronungsmesse, KV 317: Credo"
PERFORMER "Mozart, Wolfgang Amadeus"
INDEX 00 50:49:15
INDEX 01 50:52:20
TRACK 11 AUDIO
TITLE "Kronungsmesse, KV 317: Sanctus"
PERFORMER "Mozart, Wolfgang Amadeus"
INDEX 00 57:26:70
INDEX 01 57:30:08
TRACK 12 AUDIO
TITLE "Kronungsmesse, KV 317: Benedictus"
PERFORMER "Mozart, Wolfgang Amadeus"
INDEX 00 59:16:50
INDEX 01 59:17:33
TRACK 13 AUDIO
TITLE "Kronungsmesse, KV 317: Agnus Dei"
PERFORMER "Mozart, Wolfgang Amadeus"
INDEX 00 62:43:30
INDEX 01 62:46:25
[teatrix.ru].t20093.torrent 
Торрент: Зарегистрирован [ 2016-03-19 00:57 ] · 4A79B74A46549FD8575C6B105CD23815EE8A7F79

Скачать .torrent

Скачать

13 KB

Статус: проверено
Скачан: 1 раз
Размер: 320 MB
terms.php



Быстрый ответ

Имя:

      
Для отправки сообщений необходимо включить JavaScript
Показать сообщения:    

Текущее время: 04-Дек 23:25

Часовой пояс: UTC + 3


Вы можете начинать темы
Вы можете отвечать на сообщения
Вы не можете редактировать свои сообщения
Вы не можете удалять свои сообщения
Вы не можете голосовать в опросах
Вы не можете прикреплять файлы к сообщениям
Вы можете скачивать файлы