Вера / Vera (Рустам Ильясов) [2012, Россия, короткометражка, WEB-DL 1080] + Original Rus


Статистика раздачи [Обновить пиров]
Размер:  238 MB   |    Зарегистрирован:  8 месяцев 16 дней   |    Скачан:  0 раз

Полного источника не было: Никогда

Личеров:  3  [  0 KB/s  ]   Подробная статистика пиров
 
   
 
 
 

[Цитировать]

Вера / Vera
Страна: Россия
Жанр: короткометражка
Год выпуска: 2012
Продолжительность: 00:04:30
Перевод: Не требуется
Cубтитры: нет
Оригинальная аудиодорожка: русский
Режиссер: Рустам Ильясов
В ролях: Виктор Вержбицкий, Петр Рыков, Руслан Легостаев, Маша Кирсанова, Григорий Кокоткин
Описание: В основе сюжета фильма — дуэль, где мужчины двух разных поколений решают вопросы чести. Причина — женщина. Действие фильма разворачивается в наши дни, в глухом зимнем лесу, где герои стреляют друг в друга из настоящих дуэльных пистолетов. Этот фильм о русском менталитете — о страстности и красоте, и о величии природы вокруг нас.
Доп. информация: Победитель в номинации Best Branded Fashion Film на Madrid Fashion Film Festival-2013
Участник российской программы «Короткий метр» 35 ММКФ
Участник MODE VISION 2012
Сэмпл: http://multi-up.com/1026276
Качество видео: WEB-DL
Формат видео: MOV
Видео: avc, 1920x850, 2.25:1, 5 073 Kbps, 25.000 fps
Аудио: pcm, 2 304 Kbps, 48.0 KHz, 24bit, 2ch

MediaInfo

General
Complete name : P:\КЛИПЫ\Вера.mov
Format : MPEG-4
Format profile : QuickTime
Codec ID : qt
File size : 238 MiB
Duration : 4mn 30s
Overall bit rate : 7 380 Kbps
Encoded date : UTC 2012-04-02 13:30:06
Tagged date : UTC 2012-04-02 13:30:13
Writing library : Apple QuickTime
Video
ID : 2
Format : AVC
Format/Info : Advanced Video Codec
Format profile : Main@L4.0
Format settings, CABAC : No
Format settings, ReFrames : 2 frames
Codec ID : avc1
Codec ID/Info : Advanced Video Coding
Duration : 4mn 30s
Bit rate : 5 073 Kbps
Width : 1 920 pixels
Height : 850 pixels
Display aspect ratio : 2.25:1
Frame rate mode : Constant
Frame rate : 25.000 fps
Color space : YUV
Chroma subsampling : 4:2:0
Bit depth : 8 bits
Scan type : Progressive
Bits/(Pixel*Frame) : 0.124
Stream size : 163 MiB (69%)
Language : English
Encoded date : UTC 2012-04-02 13:29:56
Tagged date : UTC 2012-04-02 13:30:13
Color primaries : BT.709
Transfer characteristics : BT.709
Matrix coefficients : BT.709
Audio
ID : 1
Format : PCM
Format settings, Endianness : Little
Format settings, Sign : Unsigned
Codec ID : in24
Duration : 4mn 30s
Bit rate mode : Constant
Bit rate : 2 304 Kbps
Channel(s) : 2 channels
Channel positions : Front: L R
Sampling rate : 48.0 KHz
Bit depth : 24 bits
Stream size : 74.2 MiB (31%)
Language : English
Encoded date : UTC 2012-04-02 13:29:56
Tagged date : UTC 2012-04-02 13:30:13

Скриншот c названием фильма

Скриншоты

[teatrix.ru].t20095.torrent 
Торрент: Зарегистрирован [ 2016-03-19 00:57 ] · CDA8211E5ADB69210643A7FA34AF410305D62556

Скачать .torrent

Скачать

19 KB

Статус: проверено
Скачан: 0 раз
Размер: 238 MB
terms.php



Быстрый ответ

Имя:

      
Для отправки сообщений необходимо включить JavaScript
Показать сообщения:    

Текущее время: 04-Дек 21:24

Часовой пояс: UTC + 3


Вы можете начинать темы
Вы можете отвечать на сообщения
Вы не можете редактировать свои сообщения
Вы не можете удалять свои сообщения
Вы не можете голосовать в опросах
Вы не можете прикреплять файлы к сообщениям
Вы можете скачивать файлы