(Classical) In Classical Mood (Vol. 01) - Music for a Summer's Evening - 1996, FLAC (tracks+.cue) lossless


 

[Цитировать]

In Classical Mood (Vol. 01) - Music for a Summer's Evening
Жанр: Classical
Страна-производитель диска: United Kingdom
Год издания диска: 1996
Издатель (лейбл): International Masters Publishers
Номер по каталогу: L GBP 60 00 18 001
Аудиокодек: FLAC
Тип рипа: tracks+.cue
Битрейт аудио: lossless
Продолжительность: 01:09:05
сайт-источник: thepiratebay
Треклист:
01 DDD Wolfgang Amadeus Mozart - Serenade No. 13 for strings in G major ("Eine kleine Nachtmusik"), K. 525 (First Movement) - Orchestra Of St. John's Smith Square, Conducted by John Lubbock [05:31]
02 ADD Frederick Delius - Koanga, opera, RT i/4 (La Calinda) - London Symphony Orchestra, Conducted by Barry Wordworth [04:16]
03 DDD Frédéric Chopin - Nocturne for piano No. 2 in E flat major, Op. 9/2, CT. 109 - Peter Katin, piano [04:56]
04 DDD Felix Mendelssohn - A Midsummer Night's Dream, overture, Op. 21 - Royal Scottish Orchestra, Conducted by Walter Weller [11:58]
05 DDD Aleksander Borodin - Prince Igor, opera (completed by Rimsky-Korsakov & Glazunov) (Polovstian Dances, Maiden's Dance) - Orchestre Filharmónica de la Ciudad de México, Conducted by Enrique Bátiz [02:46]
06 DDD George Gershwin - Porgy And Bess - Summertime - Xu Wei violin, Pamela Nicholson piano [02:00]
07 ADD Antonio Vivaldi - Violin Concerto, for violin, strings & continuo in G minor ("L'estate," The Four Seasons; "Il cimento" No. 2), Op. 8/2, RV 315 - The English Concert, Conducted by Trevor Pinnock [10:01]
08 DDD Claude Debussy - Préludes (12) for piano, Book I, L. 117 (8. The Girl with the Flaxen Hair - La Fille Aux Cheveux De Lin) - Gordon Fergus Thompson, piano [02:59]
09 DDD Giacomo Puccini - Madama Butterfly - Humming Chorus - Sofia National Opera Chorus and Orchestra, Conducted by Rouslan Raichev [03:08]
10 DDD Francisco Tárrega - Recuerdos de la Alhambra Tárrega (Memories Of The Alhambra) - Celedonio Romero, guitar [04:33]
11 DDD Joseph Marie Canteloube - Baïlèro, folksong for voice & orchestra (Chants d'Auvergne, Series 1, No. 2) - Natania Davrath, conductor Pierre de la Roche [06:41]
12 DDD Ludwig Van Beethoven - Symphony No. 6 in F major ("Pastoral"), Op. 68, V. Allegretto - Northern Sinfonia of England, Conducted by Richard Hickox [10:05]

Лог создания рипа

Exact Audio Copy V0.99 prebeta 5 from 4. May 2009
EAC extraction logfile from 17. February 2010, 22:06
Klassische Momente / Musik fьr einen Sommerabend
Used drive : TSSTcorpCDDVDW SH-S223F Adapter: 1 ID: 1
Read mode : Secure
Utilize accurate stream : Yes
Defeat audio cache : Yes
Make use of C2 pointers : No
Read offset correction : 6
Overread into Lead-In and Lead-Out : No
Fill up missing offset samples with silence : Yes
Delete leading and trailing silent blocks : No
Null samples used in CRC calculations : Yes
Used interface : Native Win32 interface for Win NT & 2000
Gap handling : Appended to previous track
Used output format : User Defined Encoder
Selected bitrate : 1024 kBit/s
Quality : High
Add ID3 tag : No
Command line compressor : C:\Program\FLAC\flac.exe
Additional command line options : -V -8 -T "artist=%a" -T "title=%t" -T "album=%g" -T "date=%y" -T "tracknumber=%n" -T "genre=%m" %s
TOC of the extracted CD
Track | Start | Length | Start sector | End sector
---------------------------------------------------------
1 | 0:00.00 | 5:32.07 | 0 | 24906
2 | 5:32.07 | 4:17.05 | 24907 | 44186
3 | 9:49.12 | 4:56.63 | 44187 | 66449
4 | 14:46.00 | 11:59.20 | 66450 | 120394
5 | 26:45.20 | 2:46.17 | 120395 | 132861
6 | 29:31.37 | 2:00.33 | 132862 | 141894
7 | 31:31.70 | 10:01.72 | 141895 | 187041
8 | 41:33.67 | 2:59.28 | 187042 | 200494
9 | 44:33.20 | 3:08.45 | 200495 | 214639
10 | 47:41.65 | 4:34.15 | 214640 | 235204
11 | 52:16.05 | 6:42.02 | 235205 | 265356
12 | 58:58.07 | 10:06.35 | 265357 | 310841
Track 1
Filename E:\rippat\Musik fьr einen Sommerabend\01 Wolfgang Amadeus Mozart - Eine Kleine Nachtmusik, K 525 - 1. Allegro.wav
Pre-gap length 0:00:02.00
Peak level 91.4 %
Track quality 100.0 %
Copy CRC FB405E64
Cannot be verified as accurate (confidence 6) [BC7F3226], AccurateRip returned [71A1B6A2]
Copy OK
Track 2
Filename E:\rippat\Musik fьr einen Sommerabend\02 Frederick Delius - Koanga- La Calinda.wav
Pre-gap length 0:00:02.98
Peak level 88.9 %
Track quality 100.0 %
Copy CRC 69D404D2
Cannot be verified as accurate (confidence 6) [4F3FBE6F], AccurateRip returned [02F903B3]
Copy OK
Track 3
Filename E:\rippat\Musik fьr einen Sommerabend\03 Frйdйric Chopin - Nocturne in E flat major.wav
Pre-gap length 0:00:02.88
Peak level 62.6 %
Track quality 99.9 %
Copy CRC 1C0DAA9E
Cannot be verified as accurate (confidence 6) [15E5543F], AccurateRip returned [7CD4DE53]
Copy OK
Track 4
Filename E:\rippat\Musik fьr einen Sommerabend\04 Felix Mendelssohn Bartholdy - A Midsummer Night's Dream- Overture.wav
Pre-gap length 0:00:04.41
Peak level 96.2 %
Track quality 100.0 %
Copy CRC B0DDD907
Cannot be verified as accurate (confidence 6) [FEE76DA5], AccurateRip returned [F3B3750D]
Copy OK
Track 5
Filename E:\rippat\Musik fьr einen Sommerabend\05 Alexander Borodin - Prince Igor- Polovstian Dances, Maidens' Dance.wav
Pre-gap length 0:00:05.37
Peak level 17.0 %
Track quality 100.0 %
Copy CRC 821BAB5F
Cannot be verified as accurate (confidence 6) [7577AB3E], AccurateRip returned [D182B3E2]
Copy OK
Track 6
Filename E:\rippat\Musik fьr einen Sommerabend\06 George Gershwin - Porgy And Bess- Summertime.wav
Pre-gap length 0:00:05.04
Peak level 32.6 %
Track quality 100.0 %
Copy CRC 0BFA6CD2
Cannot be verified as accurate (confidence 6) [2F68A8CE], AccurateRip returned [F40EA8FA]
Copy OK
Track 7
Filename E:\rippat\Musik fьr einen Sommerabend\07 Antonio Vivaldi - The Four Seasons- Summer.wav
Pre-gap length 0:00:03.73
Peak level 55.7 %
Track quality 100.0 %
Copy CRC 84BBB3AF
Cannot be verified as accurate (confidence 6) [5F02E5F7], AccurateRip returned [019485B3]
Copy OK
Track 8
Filename E:\rippat\Musik fьr einen Sommerabend\08 Claude Debussy - Preludes, Book 1, L 117 - La Fille Aux Cheveux De Lin.wav
Pre-gap length 0:00:03.20
Peak level 57.8 %
Track quality 100.0 %
Copy CRC 33FE0995
Cannot be verified as accurate (confidence 6) [45D32FBA], AccurateRip returned [F9068896]
Copy OK
Track 9
Filename E:\rippat\Musik fьr einen Sommerabend\09 Giacomo Puccini - Madame Butterfly- Humming Chorus.wav
Pre-gap length 0:00:03.28
Peak level 26.5 %
Track quality 99.9 %
Copy CRC B2971476
Cannot be verified as accurate (confidence 6) [FA43E872], AccurateRip returned [B06F21FA]
Copy OK
Track 10
Filename E:\rippat\Musik fьr einen Sommerabend\10 Francisco Tбrrega - Recuerdos De La Alhambra.wav
Pre-gap length 0:00:02.72
Peak level 37.5 %
Track quality 100.0 %
Copy CRC DA7BD7E0
Cannot be verified as accurate (confidence 6) [309332A6], AccurateRip returned [981E62CA]
Copy OK
Track 11
Filename E:\rippat\Musik fьr einen Sommerabend\11 Marie Joseph Canteloube - Chants d'Auvergne- Bailero.wav
Pre-gap length 0:00:04.28
Peak level 46.5 %
Track quality 100.0 %
Copy CRC 4A8D1B9A
Cannot be verified as accurate (confidence 6) [C1565719], AccurateRip returned [80834FE9]
Copy OK
Track 12
Filename E:\rippat\Musik fьr einen Sommerabend\12 Ludwig Van Beethoven - Symphony #6 In F, Op. 68, 'Pastoral' - 5. Allegretto.wav
Pre-gap length 0:00:03.44
Peak level 84.9 %
Track quality 100.0 %
Copy CRC 13D23D63
Cannot be verified as accurate (confidence 6) [F0BEEE16], AccurateRip returned [A82547A2]
Copy OK
No tracks could be verified as accurate
You may have a different pressing from the one(s) in the database
No errors occurred
End of status report

Содержание индексной карты (.CUE)

REM GENRE Klassik
REM DATE 1998
REM DISCID BE10300C
REM COMMENT "ExactAudioCopy v0.99pb5"
PERFORMER "Klassische Momente"
TITLE "Music for a Summer's Evening"
FILE "01 Wolfgang Amadeus Mozart - Eine Kleine Nachtmusik, K 525 - 1. Allegro.flac" WAVE
TRACK 01 AUDIO
TITLE "Wolfgang Amadeus Mozart - Eine Kleine Nachtmusik, K 525 - 1. Allegro"
PERFORMER "Klassische Momente"
INDEX 01 00:00:00
TRACK 02 AUDIO
TITLE "Frederick Delius - Koanga: La Calinda"
PERFORMER "Klassische Momente"
INDEX 00 05:29:08
FILE "02 Frederick Delius - Koanga- La Calinda.flac" WAVE
INDEX 01 00:00:00
TRACK 03 AUDIO
TITLE "Frederic Chopin - Nocturne in E flat major"
PERFORMER "Klassische Momente"
INDEX 00 04:14:14
FILE "03 Frederic Chopin - Nocturne in E flat major.flac" WAVE
INDEX 01 00:00:00
TRACK 04 AUDIO
TITLE "Felix Mendelssohn Bartholdy - A Midsummer Night's Dream: Overture"
PERFORMER "Klassische Momente"
INDEX 00 04:52:32
FILE "04 Felix Mendelssohn Bartholdy - A Midsummer Night's Dream- Overture.flac" WAVE
INDEX 01 00:00:00
TRACK 05 AUDIO
TITLE "Alexander Borodin - Prince Igor: Polovstian Dances, Maidens' Dance"
PERFORMER "Klassische Momente"
INDEX 00 11:53:67
FILE "05 Alexander Borodin - Prince Igor- Polovstian Dances, Maidens' Dance.flac" WAVE
INDEX 01 00:00:00
TRACK 06 AUDIO
TITLE "George Gershwin - Porgy And Bess: Summertime"
PERFORMER "Klassische Momente"
INDEX 00 02:41:14
FILE "06 George Gershwin - Porgy And Bess- Summertime.flac" WAVE
INDEX 01 00:00:00
TRACK 07 AUDIO
TITLE "Antonio Vivaldi - The Four Seasons: Summer"
PERFORMER "Klassische Momente"
INDEX 00 01:56:53
FILE "07 Antonio Vivaldi - The Four Seasons- Summer.flac" WAVE
INDEX 01 00:00:00
TRACK 08 AUDIO
TITLE "Claude Debussy - Preludes, Book 1, L 117 - La Fille Aux Cheveux De Lin"
PERFORMER "Klassische Momente"
INDEX 00 09:58:57
FILE "08 Claude Debussy - Preludes, Book 1, L 117 - La Fille Aux Cheveux De Lin.flac" WAVE
INDEX 01 00:00:00
TRACK 09 AUDIO
TITLE "Giacomo Puccini - Madame Butterfly: Humming Chorus"
PERFORMER "Klassische Momente"
INDEX 00 02:56:07
FILE "09 Giacomo Puccini - Madame Butterfly- Humming Chorus.flac" WAVE
INDEX 01 00:00:00
TRACK 10 AUDIO
TITLE "Francisco Tarrega - Recuerdos De La Alhambra"
PERFORMER "Klassische Momente"
INDEX 00 03:05:66
FILE "10 Francisco Tarrega - Recuerdos De La Alhambra.flac" WAVE
INDEX 01 00:00:00
TRACK 11 AUDIO
TITLE "Marie Joseph Canteloube - Chants d'Auvergne: Bailero"
PERFORMER "Klassische Momente"
INDEX 00 04:29:69
FILE "11 Marie Joseph Canteloube - Chants d'Auvergne- Bailero.flac" WAVE
INDEX 01 00:00:00
TRACK 12 AUDIO
TITLE "Ludwig Van Beethoven - Symphony #6 In F, Op. 68, 'Pastoral' - 5. Allegretto"
PERFORMER "Klassische Momente"
INDEX 00 06:38:44
FILE "12 Ludwig Van Beethoven - Symphony #6 In F, Op. 68, 'Pastoral' - 5. Allegretto.flac" WAVE
INDEX 01 00:00:00



Показать сообщения:    

Текущее время: 10-Дек 21:34

Часовой пояс: UTC + 3


Вы не можете начинать темы
Вы не можете отвечать на сообщения
Вы не можете редактировать свои сообщения
Вы не можете удалять свои сообщения
Вы не можете голосовать в опросах
Вы не можете прикреплять файлы к сообщениям
Вы не можете скачивать файлы