(Classical) In Classical Mood (Vol. 07) - Air Of Spring - 1996, FLAC (tracks+.cue) lossless


 

[Цитировать]

In Classical Mood (Vol. 07) - Air Of Spring
Жанр: Classical
Страна-производитель диска: United Kingdom
Год издания диска: 1996
Издатель (лейбл): International Masters Publishers
Номер по каталогу: L GBP 60 00 18 004
Аудиокодек: FLAC
Тип рипа: tracks+.cue
Битрейт аудио: lossless
Продолжительность: 01:14:25
сайт-источник: thepiratebay.se
Треклист:
01 ADD Edward Grieg - Holberg Suite, Op. 40 - Preludium - Swiss Chamber Orchestra, Conducted by Agnieszka Duczmal [02:21]
02 DDD Frederick Delius - On Hearing the First Cuckoo in Spring, tone poem for orchestra (Pieces for small orchestra, No. 1), RT vi/19/1 - London Symphony Orchestra, Conducted by Barry Wordworth [07:24]
03 ADD Antonio Vivaldi - Violin Concerto, for violin, strings & continuo in E major ("La Primavera," The Four Seasons; "Il cimento" No. 1), Op.8/1, RV 269 - The English Concert, Conducted by Trevor Pinnock [10:40]
04 ADD Felix Mendelssohn - Lieder ohne Worte: Frühlingslied - Martin Jones, piano [02:03]
05 DDD Robert Schumann - Symphony No. 1 in B flat major, op. 38 ('Spring'): IV. Allegro animato e grazioso - Royal Liverpool Philharmonic Orchestra, Conducted by Marek Janowski [08:25]
06 ADD Franz Schuber - Schwanengesang (Swan Song), song cycle for voice & piano, D. 957 (Das Fischermädchen) - John Shirley-Quirk baritone; Steuart Bedford, piano [01:57]
07 DDD Peter Tchaikovsky - The Nutcracker Suite, Op. 71A - Valse Des Fleurs (Walz of the Flowers) - Royal Philharmonic Orchestra, Conducted by Enrique Bátiz [06:45]
08 DDD Gustav Mahler - Symphony No. 3 in D minor: II. Tempo di Menuetto - Utah Symphony Orchestra, Conducted by Maurice Abravanel [09:49]
09 DDD Carl Maria von Weber - Concerto #1 For Clarinet & Orchestra In F Minor, J 114, Op. 73 - III Rondo (Allegretto) - Emma Johnson, clarinet; English Chamber Orchestra, Conducted by Yan Pascal Tortelier [06:36]
10 DDD Leo Delibes - Lakmé: The Flower Duet ('Viens, Mallika') - Alessandra Ruffini, Serena Lazzarini, Orchestra Intrnazionale d'Italia, Conducted by Carlos Piatini [01:38]
11 DDD Wolfgang Amadeus Mozart - Horn Concerto No. 4: III. Rondo (Allegro vivace) 6/8 - Barry Tuckwell horn - The Philharmonia [03:57]
12 DDD Bedrich Smetana - Vltava (The Moldau), symphonic poem (Má Vlast No. 2), JB 1:112/2 - Wiener Symphony Orchestra, Conducted by Yuri Ahronvitch [12:41]

Лог создания рипа

Exact Audio Copy V0.99 prebeta 5 from 4. May 2009
EAC extraction logfile from 17. February 2010, 20:56
In Classical Mood / Air Of Spring
Used drive : TSSTcorpCDDVDW SH-S223F Adapter: 1 ID: 1
Read mode : Secure
Utilize accurate stream : Yes
Defeat audio cache : Yes
Make use of C2 pointers : No
Read offset correction : 6
Overread into Lead-In and Lead-Out : No
Fill up missing offset samples with silence : Yes
Delete leading and trailing silent blocks : No
Null samples used in CRC calculations : Yes
Used interface : Native Win32 interface for Win NT & 2000
Gap handling : Appended to previous track
Used output format : User Defined Encoder
Selected bitrate : 1024 kBit/s
Quality : High
Add ID3 tag : No
Command line compressor : C:\Program\FLAC\flac.exe
Additional command line options : -V -8 -T "artist=%a" -T "title=%t" -T "album=%g" -T "date=%y" -T "tracknumber=%n" -T "genre=%m" %s
TOC of the extracted CD
Track | Start | Length | Start sector | End sector
---------------------------------------------------------
1 | 0:00.00 | 2:21.34 | 0 | 10608
2 | 2:21.34 | 7:22.27 | 10609 | 43785
3 | 9:43.61 | 10:39.63 | 43786 | 91773
4 | 20:23.49 | 2:01.74 | 91774 | 100922
5 | 22:25.48 | 8:24.55 | 100923 | 138777
6 | 30:50.28 | 1:56.38 | 138778 | 147515
7 | 32:46.66 | 6:43.42 | 147516 | 177782
8 | 39:30.33 | 9:48.56 | 177783 | 221938
9 | 49:19.14 | 6:35.05 | 221939 | 251568
10 | 55:54.19 | 1:36.30 | 251569 | 258798
11 | 57:30.49 | 3:55.05 | 258799 | 276428
12 | 61:25.54 | 12:42.56 | 276429 | 333634
Track 1
Filename E:\rippat\Air Of Spring\01 01 Edvarg Grieg - Holberg suite- Preludium.wav
Pre-gap length 0:00:02.00
Peak level 77.2 %
Track quality 99.9 %
Copy CRC 8FD98B78
Cannot be verified as accurate (confidence 3) [C9534E3D], AccurateRip returned [2F0F8695]
Copy OK
Track 2
Filename E:\rippat\Air Of Spring\02 02 Frederick Delius - On Hearing the Fist Cuckoo in Spring.wav
Pre-gap length 0:00:01.24
Peak level 29.6 %
Track quality 100.0 %
Copy CRC 0C2E392A
Cannot be verified as accurate (confidence 3) [2DB36A19], AccurateRip returned [15E18B06]
Copy OK
Track 3
Filename E:\rippat\Air Of Spring\03 03 Antonio Vivaldi - I Quattro Stagione - La Primavera - Allegro.wav
Pre-gap length 0:00:01.54
Peak level 27.2 %
Track quality 100.0 %
Copy CRC 380A3DEC
Cannot be verified as accurate (confidence 3) [DFCF5F0F], AccurateRip returned [28ADB57D]
Copy OK
Track 4
Filename E:\rippat\Air Of Spring\04 04 Felix Mendelssohn - Lieder ohne Worte- Frьhlingslied.wav
Pre-gap length 0:00:00.60
Peak level 35.7 %
Track quality 100.0 %
Copy CRC 020970D6
Cannot be verified as accurate (confidence 3) [13388919], AccurateRip returned [B4B384F3]
Copy OK
Track 5
Filename E:\rippat\Air Of Spring\05 05 Robert Schumann -Symphony No. 1 in B flat major, op. 38 ('Spring')- IV. Allegro animato e grazioso.wav
Pre-gap length 0:00:00.92
Peak level 52.8 %
Track quality 99.9 %
Copy CRC C59E64AB
Cannot be verified as accurate (confidence 3) [BF2CD35D], AccurateRip returned [54203CDE]
Copy OK
Track 6
Filename E:\rippat\Air Of Spring\06 06 Franz Schubert -Schwanengesang, D 957 - Das Fischermдdchen.wav
Pre-gap length 0:00:01.04
Peak level 27.4 %
Track quality 100.0 %
Copy CRC 667184DB
Cannot be verified as accurate (confidence 3) [6B9BA0A3], AccurateRip returned [7338969F]
Copy OK
Track 7
Filename E:\rippat\Air Of Spring\07 07 Peter Tjajkovskij - The Nutcracker Suite, Op. 71A - Valse Des Fleurs.wav
Pre-gap length 0:00:01.20
Peak level 60.0 %
Track quality 100.0 %
Copy CRC 481A9C1F
Cannot be verified as accurate (confidence 3) [78B5D0E1], AccurateRip returned [C8A973B7]
Copy OK
Track 8
Filename E:\rippat\Air Of Spring\08 08 Gustav Mahler - Symphony No. 3 in D minor- II. Tempo di Menuetto.wav
Pre-gap length 0:00:00.78
Peak level 56.2 %
Track quality 99.9 %
Copy CRC D9FCD600
Cannot be verified as accurate (confidence 3) [4F8455CC], AccurateRip returned [3D26DD2E]
Copy OK
Track 9
Filename E:\rippat\Air Of Spring\09 09 Carl Maria von Weber - Concerto #1 For Clarinet & Orchestra In F Minor, J 114, Op. 73 - 3. Rondo (Allegretto).wav
Pre-gap length 0:00:01.26
Peak level 91.4 %
Track quality 100.0 %
Copy CRC 000D61CA
Cannot be verified as accurate (confidence 3) [4B5B1A7C], AccurateRip returned [61026159]
Copy OK
Track 10
Filename E:\rippat\Air Of Spring\10 10 Leo Delibes - Lakmй- The Flower Duet.wav
Pre-gap length 0:00:01.33
Peak level 46.0 %
Track quality 100.0 %
Copy CRC 269B482B
Cannot be verified as accurate (confidence 3) [F7C6C6BC], AccurateRip returned [DBF2E398]
Copy OK
Track 11
Filename E:\rippat\Air Of Spring\11 11 Wolfgang Amadeus Mozart - Horn Concerto No. 4- III. Rondo (Allegro vivace) 6,8.wav
Pre-gap length 0:00:00.89
Peak level 84.5 %
Track quality 100.0 %
Copy CRC A813A197
Cannot be verified as accurate (confidence 3) [9E7EA06E], AccurateRip returned [891A593D]
Copy OK
Track 12
Filename E:\rippat\Air Of Spring\12 12 Bedrich Smetana - Mб vlast, Vltava (Die Moldau).wav
Pre-gap length 0:00:01.25
Peak level 84.6 %
Track quality 99.9 %
Copy CRC 066F4C61
Cannot be verified as accurate (confidence 3) [76F6F9B2], AccurateRip returned [5A8E3904]
Copy OK
No tracks could be verified as accurate
You may have a different pressing from the one(s) in the database
No errors occurred
End of status report
------------------------------------------------------------
Exact Audio Copy V0.99 prebeta 5 from 4. May 2009
EAC extraction logfile from 18. February 2010, 0:03
In Classical Mood / Air Of Spring
Used drive : TSSTcorpCDDVDW SH-S223F Adapter: 1 ID: 1
Read mode : Secure
Utilize accurate stream : Yes
Defeat audio cache : Yes
Make use of C2 pointers : No
Read offset correction : 6
Overread into Lead-In and Lead-Out : No
Fill up missing offset samples with silence : Yes
Delete leading and trailing silent blocks : No
Null samples used in CRC calculations : Yes
Used interface : Native Win32 interface for Win NT & 2000
Gap handling : Appended to previous track
Used output format : User Defined Encoder
Selected bitrate : 1024 kBit/s
Quality : High
Add ID3 tag : No
Command line compressor : C:\Program\FLAC\flac.exe
Additional command line options : -V -8 -T "artist=%a" -T "title=%t" -T "album=%g" -T "date=%y" -T "tracknumber=%n" -T "genre=%m" %s
TOC of the extracted CD
Track | Start | Length | Start sector | End sector
---------------------------------------------------------
1 | 0:00.00 | 2:21.34 | 0 | 10608
2 | 2:21.34 | 7:22.27 | 10609 | 43785
3 | 9:43.61 | 10:39.63 | 43786 | 91773
4 | 20:23.49 | 2:01.74 | 91774 | 100922
5 | 22:25.48 | 8:24.55 | 100923 | 138777
6 | 30:50.28 | 1:56.38 | 138778 | 147515
7 | 32:46.66 | 6:43.42 | 147516 | 177782
8 | 39:30.33 | 9:48.56 | 177783 | 221938
9 | 49:19.14 | 6:35.05 | 221939 | 251568
10 | 55:54.19 | 1:36.30 | 251569 | 258798
11 | 57:30.49 | 3:55.05 | 258799 | 276428
12 | 61:25.54 | 12:42.56 | 276429 | 333634
Track 1
Filename E:\rippat\Air Of Spring\01 Edvarg Grieg - Holberg suite- Preludium.wav
Pre-gap length 0:00:02.00
Peak level 77.2 %
Track quality 99.9 %
Copy CRC 8FD98B78
Cannot be verified as accurate (confidence 3) [C9534E3D], AccurateRip returned [2F0F8695]
Copy OK
Track 2
Filename E:\rippat\Air Of Spring\02 Frederick Delius - On Hearing the Fist Cuckoo in Spring.wav
Pre-gap length 0:00:01.26
Peak level 29.6 %
Track quality 100.0 %
Copy CRC 0C2E392A
Cannot be verified as accurate (confidence 3) [2DB36A19], AccurateRip returned [15E18B06]
Copy OK
Track 3
Filename E:\rippat\Air Of Spring\03 Antonio Vivaldi - I Quattro Stagione - La Primavera - Allegro.wav
Pre-gap length 0:00:01.57
Peak level 27.2 %
Track quality 100.0 %
Copy CRC 380A3DEC
Cannot be verified as accurate (confidence 3) [DFCF5F0F], AccurateRip returned [28ADB57D]
Copy OK
Track 4
Filename E:\rippat\Air Of Spring\04 Felix Mendelssohn - Lieder ohne Worte- Frьhlingslied.wav
Pre-gap length 0:00:00.62
Peak level 35.7 %
Track quality 100.0 %
Copy CRC 020970D6
Cannot be verified as accurate (confidence 3) [13388919], AccurateRip returned [B4B384F3]
Copy OK
Track 5
Filename E:\rippat\Air Of Spring\05 Robert Schumann -Symphony No. 1 in B flat major, op. 38 ('Spring')- IV. Allegro animato e grazioso.wav
Pre-gap length 0:00:00.90
Peak level 52.8 %
Track quality 99.9 %
Copy CRC C59E64AB
Cannot be verified as accurate (confidence 3) [BF2CD35D], AccurateRip returned [54203CDE]
Copy OK
Track 6
Filename E:\rippat\Air Of Spring\06 Franz Schubert -Schwanengesang, D 957 - Das Fischermдdchen.wav
Pre-gap length 0:00:01.06
Peak level 27.4 %
Track quality 100.0 %
Copy CRC 667184DB
Cannot be verified as accurate (confidence 3) [6B9BA0A3], AccurateRip returned [7338969F]
Copy OK
Track 7
Filename E:\rippat\Air Of Spring\07 Peter Tjajkovskij - The Nutcracker Suite, Op. 71A - Valse Des Fleurs.wav
Pre-gap length 0:00:01.24
Peak level 60.0 %
Track quality 100.0 %
Copy CRC 481A9C1F
Cannot be verified as accurate (confidence 3) [78B5D0E1], AccurateRip returned [C8A973B7]
Copy OK
Track 8
Filename E:\rippat\Air Of Spring\08 Gustav Mahler - Symphony No. 3 in D minor- II. Tempo di Menuetto.wav
Pre-gap length 0:00:00.80
Peak level 56.2 %
Track quality 99.9 %
Copy CRC D9FCD600
Cannot be verified as accurate (confidence 3) [4F8455CC], AccurateRip returned [3D26DD2E]
Copy OK
Track 9
Filename E:\rippat\Air Of Spring\09 Carl Maria von Weber - Concerto #1 For Clarinet & Orchestra In F Minor, J 114, Op. 73 - 3. Rondo (Allegretto).wav
Pre-gap length 0:00:01.25
Peak level 91.4 %
Track quality 100.0 %
Copy CRC 000D61CA
Cannot be verified as accurate (confidence 3) [4B5B1A7C], AccurateRip returned [61026159]
Copy OK
Track 10
Filename E:\rippat\Air Of Spring\10 Leo Delibes - Lakmй- The Flower Duet.wav
Pre-gap length 0:00:01.33
Peak level 46.0 %
Track quality 100.0 %
Copy CRC 269B482B
Cannot be verified as accurate (confidence 3) [F7C6C6BC], AccurateRip returned [DBF2E398]
Copy OK
Track 11
Filename E:\rippat\Air Of Spring\11 Wolfgang Amadeus Mozart - Horn Concerto No. 4- III. Rondo (Allegro vivace) 6,8.wav
Pre-gap length 0:00:00.92
Peak level 84.5 %
Track quality 100.0 %
Copy CRC A813A197
Cannot be verified as accurate (confidence 3) [9E7EA06E], AccurateRip returned [891A593D]
Copy OK
Track 12
Filename E:\rippat\Air Of Spring\12 Bedrich Smetana - Mб vlast, Vltava (Die Moldau).wav
Pre-gap length 0:00:01.28
Peak level 84.6 %
Track quality 99.9 %
Copy CRC 066F4C61
Cannot be verified as accurate (confidence 3) [76F6F9B2], AccurateRip returned [5A8E3904]
Copy OK
No tracks could be verified as accurate
You may have a different pressing from the one(s) in the database
No errors occurred
End of status report

Содержание индексной карты (.CUE)

REM GENRE Classical
REM DATE 1998
REM DISCID B411600C
REM COMMENT "ExactAudioCopy v0.99pb5"
PERFORMER "In Classical Mood"
TITLE "Air Of Spring"
FILE "01 Edvarg Grieg - Holberg suite- Preludium.flac" WAVE
TRACK 01 AUDIO
TITLE "Edvarg Grieg - Holberg suite: Preludium"
PERFORMER "In Classical Mood"
INDEX 01 00:00:00
TRACK 02 AUDIO
TITLE "Frederick Delius - On Hearing the Fist Cuckoo in Spring"
PERFORMER "In Classical Mood"
INDEX 00 02:20:14
FILE "02 Frederick Delius - On Hearing the Fist Cuckoo in Spring.flac" WAVE
INDEX 01 00:00:00
TRACK 03 AUDIO
TITLE "Antonio Vivaldi - I Quattro Stagione - La Primavera - Allegro"
PERFORMER "In Classical Mood"
INDEX 00 07:20:59
FILE "03 Antonio Vivaldi - I Quattro Stagione - La Primavera - Allegro.flac" WAVE
INDEX 01 00:00:00
TRACK 04 AUDIO
TITLE "Felix Mendelssohn - Lieder ohne Worte: Fruhlingslied"
PERFORMER "In Classical Mood"
INDEX 00 10:39:16
FILE "04 Felix Mendelssohn - Lieder ohne Worte- Fruhlingslied.flac" WAVE
INDEX 01 00:00:00
TRACK 05 AUDIO
TITLE "Robert Schumann -Symphony No. 1 in B flat major, op. 38 ('Spring'): IV. Alleg..."
PERFORMER "In Classical Mood"
INDEX 00 02:01:06
FILE "05 Robert Schumann -Symphony No. 1 in B flat major, op. 38 ('Spring')- IV. Allegro animato e grazioso.flac" WAVE
INDEX 01 00:00:00
TRACK 06 AUDIO
TITLE "Franz Schubert -Schwanengesang, D 957 - Das Fischermadchen"
PERFORMER "In Classical Mood"
INDEX 00 08:23:50
FILE "06 Franz Schubert -Schwanengesang, D 957 - Das Fischermadchen.flac" WAVE
INDEX 01 00:00:00
TRACK 07 AUDIO
TITLE "Peter Tjajkovskij - The Nutcracker Suite, Op. 71A - Valse Des Fleurs"
PERFORMER "In Classical Mood"
INDEX 00 01:55:20
FILE "07 Peter Tjajkovskij - The Nutcracker Suite, Op. 71A - Valse Des Fleurs.flac" WAVE
INDEX 01 00:00:00
TRACK 08 AUDIO
TITLE "Gustav Mahler - Symphony No. 3 in D minor: II. Tempo di Menuetto"
PERFORMER "In Classical Mood"
INDEX 00 06:42:57
FILE "08 Gustav Mahler - Symphony No. 3 in D minor- II. Tempo di Menuetto.flac" WAVE
INDEX 01 00:00:00
TRACK 09 AUDIO
TITLE "Carl Maria von Weber - Concerto #1 For Clarinet & Orchestra In F Minor, J 11..."
PERFORMER "In Classical Mood"
INDEX 00 09:47:37
FILE "09 Carl Maria von Weber - Concerto #1 For Clarinet & Orchestra In F Minor, J 114, Op. 73 - 3. Rondo (Allegretto).flac" WAVE
INDEX 01 00:00:00
TRACK 10 AUDIO
TITLE "Leo Delibes - Lakme: The Flower Duet"
PERFORMER "In Classical Mood"
INDEX 00 06:33:55
FILE "10 Leo Delibes - Lakme- The Flower Duet.flac" WAVE
INDEX 01 00:00:00
TRACK 11 AUDIO
TITLE "Wolfgang Amadeus Mozart - Horn Concerto No. 4: III. Rondo (Allegro vivace) 6/8"
PERFORMER "In Classical Mood"
INDEX 00 01:35:36
FILE "11 Wolfgang Amadeus Mozart - Horn Concerto No. 4- III. Rondo (Allegro vivace) 6,8.flac" WAVE
INDEX 01 00:00:00
TRACK 12 AUDIO
TITLE "Bedrich Smetana - Ma vlast, Vltava (Die Moldau)"
PERFORMER "In Classical Mood"
INDEX 00 03:53:59
FILE "12 Bedrich Smetana - Ma vlast, Vltava (Die Moldau).flac" WAVE
INDEX 01 00:00:00



Показать сообщения:    

Текущее время: 05-Дек 07:27

Часовой пояс: UTC + 3


Вы не можете начинать темы
Вы не можете отвечать на сообщения
Вы не можете редактировать свои сообщения
Вы не можете удалять свои сообщения
Вы не можете голосовать в опросах
Вы не можете прикреплять файлы к сообщениям
Вы не можете скачивать файлы