(Classical) In Classical Mood (Vol. 13) - Shades of Autumn - 1997, FLAC (tracks+.cue) lossless


 

[Цитировать]

In Classical Mood (Vol. 13) - Shades of Autumn
Жанр: Classical
Страна-производитель диска: United Kingdom
Год издания диска: 1997
Издатель (лейбл): International Masters Publishers
Номер по каталогу: L GBP 60 0018 015
Аудиокодек: FLAC
Тип рипа: tracks+.cue
Битрейт аудио: lossless
Продолжительность: 01:11:40
Источник: скачано с
сайт-источник/ник/другое: thepiratebay.se
Треклист:
01 DDD Antonio Vivaldi - Violin Concerto, for violin, strings & continuo in F major ("L'autunno," The Four Seasons; "Il cimento" No. 3), Op.8/3, RV 293 - The English Concert, Conducted by Trevor Pinnock [11:09]
02 DDD Peter Ilyich Tchaikovsky - Chant sans paroles (Song without words), for piano, Op. 2/3 - Jenö Jandó, piano [02:46]
03 DDD Cécile Chaminade - Etudes de concert, for piano, Op. 35 (Autumn) - Michael Gutterman, violin; Royal Philharmonic Orchestra, Conducted by José Serebrier [06:58]
04 DDD Paul Reade - Victorian Kitchen Garden, suite for clarinet & harp or piano (Mists) - Emma Johnson, clarinet; Skaila Kanga, harp [01:55]
05 DDD Edvard Grieg - Lyric Pieces (8) for piano, Book 1, Op. 12 (Arietta) - Jenö Jandó, piano [01:07]
06 ADD Wolfgang Amadeus Mozart - Piano Concerto #23 In A, K 488 -II. Adagio - Daniel Gerard, piano; Vienna Mozart Ensemble, Conducted by Herbert Kraus [05:53]
07 DDD Joachim Raff - Abends-Rhapsodie, Op. 163b (Evening Rhapsody) - Philharmonia Orchestra, Conducted by Francisco D´Avalos [05:08]
08 DDD Edward Elgar - Cello Concerto in E minor, Op. 85 (First Movement [Excerpt]) - Ralph Kirshbaum, cello; The Royal Scottish National Orchestra, Conducted by Sir Alexander Gibson [03:48]
09 DDD Ralph Vaughan Williams - Symphony No. 2 in G major ("A London Symphony") II. Bloomsbury Square On A November Afternoon - Philharmonia Orchestra, Conducted by Owain Arwel Hughes [13:23]
10 DDD Claude Debussy - Images For Orchestra, L. 122 Gigues - Ulster Orchestra, Conducted by Yan Pascal Tortelier [07:18]
11 DDD Sergei Prokofiev - Lieutenant Kijé, suite for orchestra, Op. 60 (Romance) - Armenia Philharmonic Orchestra, Conducted by Loris Tjeknavorian [04:20]
12 DDD Alexander Glazunov - The Seasons, ballet, Op. 67 (Autumn. Baccanale / Petit Adagio) - The Royal Scottish National Orchestra, Conducted by Neeme Järvi

Лог создания рипа

Exact Audio Copy V0.99 prebeta 5 from 4. May 2009
EAC extraction logfile from 17. February 2010, 23:25
Klassiska musikstunder / Nдr hцsten nalkas
Used drive : TSSTcorpCDDVDW SH-S223F Adapter: 1 ID: 1
Read mode : Secure
Utilize accurate stream : Yes
Defeat audio cache : Yes
Make use of C2 pointers : No
Read offset correction : 6
Overread into Lead-In and Lead-Out : No
Fill up missing offset samples with silence : Yes
Delete leading and trailing silent blocks : No
Null samples used in CRC calculations : Yes
Used interface : Native Win32 interface for Win NT & 2000
Gap handling : Appended to previous track
Used output format : User Defined Encoder
Selected bitrate : 1024 kBit/s
Quality : High
Add ID3 tag : No
Command line compressor : C:\Program\FLAC\flac.exe
Additional command line options : -V -8 -T "artist=%a" -T "title=%t" -T "album=%g" -T "date=%y" -T "tracknumber=%n" -T "genre=%m" %s
TOC of the extracted CD
Track | Start | Length | Start sector | End sector
---------------------------------------------------------
1 | 0:00.00 | 11:11.00 | 0 | 50324
2 | 11:11.00 | 2:48.22 | 50325 | 62946
3 | 13:59.22 | 7:01.03 | 62947 | 94524
4 | 21:00.25 | 1:58.27 | 94525 | 103401
5 | 22:58.52 | 1:07.15 | 103402 | 108441
6 | 24:05.67 | 5:55.18 | 108442 | 135084
7 | 30:01.10 | 5:11.40 | 135085 | 158449
8 | 35:12.50 | 3:48.70 | 158450 | 175619
9 | 39:01.45 | 13:25.17 | 175620 | 236011
10 | 52:26.62 | 7:18.13 | 236012 | 268874
11 | 59:45.00 | 4:23.30 | 268875 | 288629
12 | 64:08.30 | 7:32.37 | 288630 | 322566
Track 1
Filename E:\rippat\Nдr hцsten nalkas\01 Antonio Vivaldi - I Quattro Stagione - LґAutonno.wav
Pre-gap length 0:00:02.00
Peak level 56.7 %
Track quality 100.0 %
Copy CRC E83511B9
Cannot be verified as accurate (confidence 1) [020035B3], AccurateRip returned [28C6BB6E]
Copy OK
Track 2
Filename E:\rippat\Nдr hцsten nalkas\02 Peter Tjajkovskij- Chant sans paroles nr 3, opus 2.wav
Pre-gap length 0:00:02.86
Peak level 73.9 %
Track quality 100.0 %
Copy CRC 55B2272C
Cannot be verified as accurate (confidence 1) [35FC131D], AccurateRip returned [09873FED]
Copy OK
Track 3
Filename E:\rippat\Nдr hцsten nalkas\03 Cecile Chaminade - Six йtudes de consert- 'Autumn' (orchestrated by Paul Uy).wav
Peak level 80.3 %
Track quality 99.9 %
Copy CRC 24369875
Cannot be verified as accurate (confidence 1) [DE2B5407], AccurateRip returned [291ECA63]
Copy OK
Track 4
Filename E:\rippat\Nдr hцsten nalkas\04 Paul Reade - The Victorina Kitchen Garden Suite- 'Mists'.wav
Pre-gap length 0:00:02.61
Peak level 95.2 %
Track quality 100.0 %
Copy CRC 28AA6FCE
Cannot be verified as accurate (confidence 1) [3A118B50], AccurateRip returned [6BE1EF29]
Copy OK
Track 5
Filename E:\rippat\Nдr hцsten nalkas\05 Edvard Grieg - Lyric Pieces nr 1, opus 12; 'Arietta'.wav
Pre-gap length 0:00:01.46
Peak level 64.7 %
Track quality 100.0 %
Copy CRC 80517E0B
Cannot be verified as accurate (confidence 1) [F6CBC0C1], AccurateRip returned [71CADBB2]
Copy OK
Track 6
Filename E:\rippat\Nдr hцsten nalkas\06 Wolfgang Amadeus Mozart - Piano Concerto No. 23 A-major K488, II Adagio.wav
Pre-gap length 0:00:01.40
Peak level 45.2 %
Track quality 100.0 %
Copy CRC CE968E45
Cannot be verified as accurate (confidence 1) [177C081B], AccurateRip returned [0771DB4F]
Copy OK
Track 7
Filename E:\rippat\Nдr hцsten nalkas\07 Joachim Raff - Evening Rhapsody.wav
Pre-gap length 0:00:01.64
Peak level 86.2 %
Track quality 100.0 %
Copy CRC 8A4A5ABF
Cannot be verified as accurate (confidence 1) [562E29E4], AccurateRip returned [C4DD6E23]
Copy OK
Track 8
Filename E:\rippat\Nдr hцsten nalkas\08 Edward Elgar -Cello Concerto in E minor, Op. 85, I Adagio (excerpt).wav
Pre-gap length 0:00:02.86
Peak level 61.0 %
Track quality 100.0 %
Copy CRC 41F6BAEE
Cannot be verified as accurate (confidence 1) [CA770A50], AccurateRip returned [B30F4FE4]
Copy OK
Track 9
Filename E:\rippat\Nдr hцsten nalkas\09 Ralph Vaughan Williams - A London Symphony, II Lento.wav
Pre-gap length 0:00:01.65
Peak level 97.8 %
Track quality 99.9 %
Copy CRC 37CCC2FF
Cannot be verified as accurate (confidence 1) [9DE5A5BD], AccurateRip returned [6D1A9183]
Copy OK
Track 10
Filename E:\rippat\Nдr hцsten nalkas\10 Claude Debussy -Images (For Orchestra)- Gigues.wav
Pre-gap length 0:00:01.98
Peak level 93.7 %
Track quality 100.0 %
Copy CRC 0EB182C0
Cannot be verified as accurate (confidence 1) [2005496B], AccurateRip returned [8A3D18AE]
Copy OK
Track 11
Filename E:\rippat\Nдr hцsten nalkas\11 Sergej Prokofjev - Lieutenant Kijй, II Romance.wav
Pre-gap length 0:00:01.33
Peak level 54.4 %
Track quality 100.0 %
Copy CRC 61AA8F42
Cannot be verified as accurate (confidence 1) [8F1FFD75], AccurateRip returned [7EE120AF]
Copy OK
Track 12
Filename E:\rippat\Nдr hцsten nalkas\12 Alexander Glazunov - The Seasons (ballet); 'L’Automne' (Bacchanale & Petit Adagio).wav
Pre-gap length 0:00:02.70
Peak level 71.0 %
Track quality 100.0 %
Copy CRC D304F468
Cannot be verified as accurate (confidence 1) [ACD48648], AccurateRip returned [443F41E5]
Copy OK
No tracks could be verified as accurate
You may have a different pressing from the one(s) in the database
No errors occurred
End of status report

Содержание индексной карты (.CUE)

REM GENRE Classical
REM DATE 1996
REM DISCID 9D10CC0C
REM COMMENT "ExactAudioCopy v0.99pb5"
PERFORMER "Klassiska musikstunder"
TITLE "Shades of Autumn"
FILE "01 Antonio Vivaldi - I Quattro Stagione - L'Autonno.flac" WAVE
TRACK 01 AUDIO
TITLE "Antonio Vivaldi - I Quattro Stagione - L'Autonno "
PERFORMER "Klassiska musikstunder"
INDEX 01 00:00:00
TRACK 02 AUDIO
TITLE " Peter Tjajkovskij- Chant sans paroles nr 3, opus 2"
PERFORMER "Klassiska musikstunder"
INDEX 00 11:08:10
FILE "02 Peter Tjajkovskij- Chant sans paroles nr 3, opus 2.flac" WAVE
INDEX 01 00:00:00
FILE "03 Cecile Chaminade - Six etudes de consert- 'Autumn' (orchestrated by Paul Uy).flac" WAVE
TRACK 03 AUDIO
TITLE "Cecile Chaminade - Six etudes de consert: 'Autumn' (orchestrated by Paul Uy)"
PERFORMER "Klassiska musikstunder"
INDEX 01 00:00:00
TRACK 04 AUDIO
TITLE "Paul Reade - The Victorina Kitchen Garden Suite: 'Mists'"
PERFORMER "Klassiska musikstunder"
INDEX 00 06:58:32
FILE "04 Paul Reade - The Victorina Kitchen Garden Suite- 'Mists'.flac" WAVE
INDEX 01 00:00:00
TRACK 05 AUDIO
TITLE "Edvard Grieg - Lyric Pieces nr 1, opus 12; 'Arietta'"
PERFORMER "Klassiska musikstunder"
INDEX 00 01:56:67
FILE "05 Edvard Grieg - Lyric Pieces nr 1, opus 12; 'Arietta'.flac" WAVE
INDEX 01 00:00:00
TRACK 06 AUDIO
TITLE "Wolfgang Amadeus Mozart - Piano Concerto No. 23 A-major K488, II Adagio"
PERFORMER "Klassiska musikstunder"
INDEX 00 01:05:60
FILE "06 Wolfgang Amadeus Mozart - Piano Concerto No. 23 A-major K488, II Adagio.flac" WAVE
INDEX 01 00:00:00
TRACK 07 AUDIO
TITLE "Joachim Raff - Evening Rhapsody"
PERFORMER "Klassiska musikstunder"
INDEX 00 05:53:45
FILE "07 Joachim Raff - Evening Rhapsody.flac" WAVE
INDEX 01 00:00:00
TRACK 08 AUDIO
TITLE "Edward Elgar -Cello Concerto in E minor, Op. 85, I Adagio (excerpt)"
PERFORMER "Klassiska musikstunder"
INDEX 00 05:08:50
FILE "08 Edward Elgar -Cello Concerto in E minor, Op. 85, I Adagio (excerpt).flac" WAVE
INDEX 01 00:00:00
TRACK 09 AUDIO
TITLE "Ralph Vaughan Williams - A London Symphony, II Lento"
PERFORMER "Klassiska musikstunder"
INDEX 00 03:47:21
FILE "09 Ralph Vaughan Williams - A London Symphony, II Lento.flac" WAVE
INDEX 01 00:00:00
TRACK 10 AUDIO
TITLE "Claude Debussy -Images (For Orchestra): Gigues"
PERFORMER "Klassiska musikstunder"
INDEX 00 13:23:18
FILE "10 Claude Debussy -Images (For Orchestra)- Gigues.flac" WAVE
INDEX 01 00:00:00
TRACK 11 AUDIO
TITLE "Sergej Prokofjev - Lieutenant Kije, II Romance"
PERFORMER "Klassiska musikstunder"
INDEX 00 07:16:63
FILE "11 Sergej Prokofjev - Lieutenant Kije, II Romance.flac" WAVE
INDEX 01 00:00:00
TRACK 12 AUDIO
TITLE "Alexander Glazunov - The Seasons (ballet); 'L’Automne' (Bacchanale & Petit Ad..."
PERFORMER "Klassiska musikstunder"
INDEX 00 04:20:52
FILE "12 Alexander Glazunov - The Seasons (ballet); 'L’Automne' (Bacchanale & Petit Adagio).flac" WAVE
INDEX 01 00:00:00



Показать сообщения:    

Текущее время: 05-Дек 07:30

Часовой пояс: UTC + 3


Вы не можете начинать темы
Вы не можете отвечать на сообщения
Вы не можете редактировать свои сообщения
Вы не можете удалять свои сообщения
Вы не можете голосовать в опросах
Вы не можете прикреплять файлы к сообщениям
Вы не можете скачивать файлы