(Classical) In Classical Mood (Vol. 27) - Morning Mists - 1998, FLAC (tracks+.cue) lossless


 

[Цитировать]

In Classical Mood (Vol. 27) - Morning Mists
Жанр: Classical
Страна-производитель диска: United Kingdom
Год издания диска: 1998
Издатель (лейбл): International Masters Publishers
Номер по каталогу: L GBP 60 0018 029
Аудиокодек: FLAC
Тип рипа: tracks+.cue
Битрейт аудио: lossless
Продолжительность: 01:08:46
Источник: скачано с
сайт-источник/ник/другое: thepiratebay.se
Треклист:
01 ADD Edward Elgar - Chanson De Matin, Op. 15/2 - English Symphony Orchestra, Conducted by William Boughton [03:09]
02 DDD Georges Bizet - Carmen, Suite No. 1: Intermezzo - Orchestre Filharmónica de la Ciudad de México, Conducted by Enrique Bátiz [02:36]
03 DDD Wolfgang Amadeus Mozart - Symphony #40 In G Minor, K 550 - I. Allegro molto - London Mozart Players, Conducted by Jane Glover: [07:43]
04 DDD Frédéric Chopin - Piano Concerto No. 1 in E minor, Opus 11: Second Movement - Annerose Schmidt, piano; Gewandhausorchester Leipzig, Conducted by Kurt Masur [09:51]
05 ADD Antonin Dvorak - Serenade for Strings In E minor, Opus 22, First Movement - Northern Sinfonia of England, Conducted by Myung Whun Chung [04:44]
06 ADD Aaron Copland - Quiet City, complete incidental music - English Symphony Orchestra, Conducted by William Boughton [09:04]
07 ADD Edward Grieg - Holberg Suite, Opus 40, Sarabande - Scottish Baroque Ensemble, Conducted by Leonard Friedman [03:54]
08 DDD Johannes Brahms - Symphony No. 2 in D major, Opus 73: Second Movement - Royal Liverpool Philharmonic Orchestra, Conducted by Marek Janowski [09:53]
09 DDD Johann Sebastian Bach - ite for solo cello No. 1 in G major, BWV 1007 (Sarabande) - Robert Cohen, cello [04:03]
10 DDD Benjamin Britten - Sea Interludes (4) from Peter Grimes, for orchestra, Op. 33a (Sunday Morning) - London Symphony Orchestra, Conducted by Steuart Bedford [03:59]
11 DDD Richard Wagner - Lohengrin, Prelude to Act 1 - Staatskapelle Dresden, Conducted by Hiroshi Wakasugi [09:21]

Лог создания рипа

Exact Audio Copy V0.99 prebeta 5 from 4. May 2009
EAC extraction logfile from 17. February 2010, 19:36
Various / In Classical Mood Vol. 29 - Morning Mists
Used drive : TSSTcorpCDDVDW SH-S223F Adapter: 1 ID: 1
Read mode : Secure
Utilize accurate stream : Yes
Defeat audio cache : Yes
Make use of C2 pointers : No
Read offset correction : 6
Overread into Lead-In and Lead-Out : No
Fill up missing offset samples with silence : Yes
Delete leading and trailing silent blocks : No
Null samples used in CRC calculations : Yes
Used interface : Native Win32 interface for Win NT & 2000
Gap handling : Appended to previous track
Used output format : User Defined Encoder
Selected bitrate : 1024 kBit/s
Quality : High
Add ID3 tag : No
Command line compressor : C:\Program\FLAC\flac.exe
Additional command line options : -V -8 -T "artist=%a" -T "title=%t" -T "album=%g" -T "date=%y" -T "tracknumber=%n" -T "genre=%m" %s
TOC of the extracted CD
Track | Start | Length | Start sector | End sector
---------------------------------------------------------
1 | 0:00.00 | 3:12.58 | 0 | 14457
2 | 3:12.58 | 2:39.42 | 14458 | 26424
3 | 5:52.25 | 7:46.56 | 26425 | 61430
4 | 13:39.06 | 9:54.51 | 61431 | 106031
5 | 23:33.57 | 4:46.62 | 106032 | 127543
6 | 28:20.44 | 9:07.16 | 127544 | 168584
7 | 37:27.60 | 3:57.44 | 168585 | 186403
8 | 41:25.29 | 9:56.13 | 186404 | 231116
9 | 51:21.42 | 4:03.42 | 231117 | 249383
10 | 55:25.09 | 4:00.15 | 249384 | 267398
11 | 59:25.24 | 9:21.07 | 267399 | 309480
Track 1
Filename E:\rippat\In Classical Mood Vol. 29 - Morning Mists\In Classical Mood Vol. 29 - Morning Mists\01 Edward Elgar - Chanson de matin, Opus 15.wav
Pre-gap length 0:00:02.00
Peak level 75.4 %
Track quality 100.0 %
Copy CRC 2CEC4CAE
Cannot be verified as accurate (confidence 2) [E7D970C6], AccurateRip returned [E34E6000]
Copy OK
Track 2
Filename E:\rippat\In Classical Mood Vol. 29 - Morning Mists\In Classical Mood Vol. 29 - Morning Mists\02 Georges Bizet - Carmen, Suite No. 1, Intermezzo.wav
Pre-gap length 0:00:03.06
Peak level 26.2 %
Track quality 100.0 %
Copy CRC 4F912BA8
Cannot be verified as accurate (confidence 2) [55A12CC5], AccurateRip returned [86F734D3]
Copy OK
Track 3
Filename E:\rippat\In Classical Mood Vol. 29 - Morning Mists\In Classical Mood Vol. 29 - Morning Mists\03 Wolfgang Amadeus Mozart - Symphony No. 40 in G minor.wav
Pre-gap length 0:00:03.06
Peak level 99.3 %
Track quality 100.0 %
Copy CRC 0E046334
Cannot be verified as accurate (confidence 2) [9F58C9AD], AccurateRip returned [DCE6AE63]
Copy OK
Track 4
Filename E:\rippat\In Classical Mood Vol. 29 - Morning Mists\In Classical Mood Vol. 29 - Morning Mists\04 Frederic Chopin - Piano Concerto No. 1 in E minor, Opus 11, Second Movement.wav
Pre-gap length 0:00:03.14
Peak level 64.0 %
Track quality 100.0 %
Copy CRC F1750C34
Cannot be verified as accurate (confidence 2) [D4B29594], AccurateRip returned [F94DD14C]
Copy OK
Track 5
Filename E:\rippat\In Classical Mood Vol. 29 - Morning Mists\In Classical Mood Vol. 29 - Morning Mists\05 Antonin Dvorak - Serenade for Strings In E minor, Opus 22, First Movement.wav
Pre-gap length 0:00:03.37
Peak level 87.2 %
Track quality 100.0 %
Copy CRC CF1CFE97
Cannot be verified as accurate (confidence 2) [A0B7B56A], AccurateRip returned [5FE7012C]
Copy OK
Track 6
Filename E:\rippat\In Classical Mood Vol. 29 - Morning Mists\In Classical Mood Vol. 29 - Morning Mists\06 Aaron Copland - Quiet City.wav
Pre-gap length 0:00:03.06
Peak level 77.0 %
Track quality 99.9 %
Copy CRC F4F02C0C
Cannot be verified as accurate (confidence 2) [4ADBFE96], AccurateRip returned [DAF2D3F2]
Copy OK
Track 7
Filename E:\rippat\In Classical Mood Vol. 29 - Morning Mists\In Classical Mood Vol. 29 - Morning Mists\07 Edward Grieg - Holberg Suite, Opus 40, Sarabande.wav
Pre-gap length 0:00:03.70
Peak level 90.6 %
Track quality 100.0 %
Copy CRC 35C9092A
Cannot be verified as accurate (confidence 2) [E1C55F35], AccurateRip returned [7A4DD3A5]
Copy OK
Track 8
Filename E:\rippat\In Classical Mood Vol. 29 - Morning Mists\In Classical Mood Vol. 29 - Morning Mists\08 Johannes Brahms - Symphony No. 2 in D major, Opus 73, Second Movement.wav
Pre-gap length 0:00:03.53
Peak level 98.5 %
Track quality 100.0 %
Copy CRC 9500ED23
Cannot be verified as accurate (confidence 2) [13CF2B06], AccurateRip returned [460A249F]
Copy OK
Track 9
Filename E:\rippat\In Classical Mood Vol. 29 - Morning Mists\In Classical Mood Vol. 29 - Morning Mists\09 Johann Sebastian Bach - Suite No. 1 in G major, Sarabande.wav
Pre-gap length 0:00:03.86
Peak level 26.7 %
Track quality 100.0 %
Copy CRC 93C79E79
Cannot be verified as accurate (confidence 2) [AD3FC96A], AccurateRip returned [8175F76C]
Copy OK
Track 10
Filename E:\rippat\In Classical Mood Vol. 29 - Morning Mists\In Classical Mood Vol. 29 - Morning Mists\10 Benjamin Britten - Peter Grimes - Sea Interludes, (Sunday Morning).wav
Pre-gap length 0:00:03.06
Peak level 51.5 %
Track quality 100.0 %
Copy CRC C7F164C5
Cannot be verified as accurate (confidence 2) [9938A3B0], AccurateRip returned [AF37C24E]
Copy OK
Track 11
Filename E:\rippat\In Classical Mood Vol. 29 - Morning Mists\In Classical Mood Vol. 29 - Morning Mists\11 Richard Wagner - Lohengrin, Prelude to Act 1.wav
Pre-gap length 0:00:03.05
Peak level 99.7 %
Track quality 100.0 %
Copy CRC 06E9A848
Cannot be verified as accurate (confidence 2) [C8542B0D], AccurateRip returned [862135CA]
Copy OK
No tracks could be verified as accurate
You may have a different pressing from the one(s) in the database
No errors occurred
End of status report

Содержание индексной карты (.CUE)

REM GENRE Classical
REM DATE 1999
REM DISCID 94101E0B
REM COMMENT "ExactAudioCopy v0.99pb5"
PERFORMER "Various"
TITLE "Morning Mists"
FILE "01 Edward Elgar - Chanson de matin, Opus 15.flac" WAVE
TRACK 01 AUDIO
TITLE "Edward Elgar - Chanson de matin, Opus 15"
PERFORMER "Edward Elgar - Chanson de matin, Opus 15"
INDEX 01 00:00:00
TRACK 02 AUDIO
TITLE "Georges Bizet - Carmen, Suite No. 1, Intermezzo"
PERFORMER "Georges Bizet - Carmen, Suite No. 1, Intermezzo"
INDEX 00 03:09:53
FILE "02 Georges Bizet - Carmen, Suite No. 1, Intermezzo.flac" WAVE
INDEX 01 00:00:00
TRACK 03 AUDIO
TITLE "Wolfgang Amadeus Mozart - Symphony No. 40 in G minor"
PERFORMER "Wolfgang Amadeus Mozart - Symphony No. 40 in G minor"
INDEX 00 02:36:37
FILE "03 Wolfgang Amadeus Mozart - Symphony No. 40 in G minor.flac" WAVE
INDEX 01 00:00:00
TRACK 04 AUDIO
TITLE "Frederic Chopin - Piano Concerto No. 1 in E minor, Opus 11, Second Movement"
PERFORMER "Frederic Chopin - Piano Concerto No. 1 in E minor, Opus 11, Second Movement"
INDEX 00 07:43:45
FILE "04 Frederic Chopin - Piano Concerto No. 1 in E minor, Opus 11, Second Movement.flac" WAVE
INDEX 01 00:00:00
TRACK 05 AUDIO
TITLE "Antonin Dvorak - Serenade for Strings In E minor, Opus 22, First Movement"
PERFORMER "Antonin Dvorak - Serenade for Strings In E minor, Opus 22, First Movement"
INDEX 00 09:51:23
FILE "05 Antonin Dvorak - Serenade for Strings In E minor, Opus 22, First Movement.flac" WAVE
INDEX 01 00:00:00
TRACK 06 AUDIO
TITLE "Aaron Copland - Quiet City"
PERFORMER "Aaron Copland - Quiet City"
INDEX 00 04:43:57
FILE "06 Aaron Copland - Quiet City.flac" WAVE
INDEX 01 00:00:00
TRACK 07 AUDIO
TITLE "Edward Grieg - Holberg Suite, Opus 40, Sarabande"
PERFORMER "Edward Grieg - Holberg Suite, Opus 40, Sarabande"
INDEX 00 09:03:38
FILE "07 Edward Grieg - Holberg Suite, Opus 40, Sarabande.flac" WAVE
INDEX 01 00:00:00
TRACK 08 AUDIO
TITLE "Johannes Brahms - Symphony No. 2 in D major, Opus 73, Second Movement"
PERFORMER "Johannes Brahms - Symphony No. 2 in D major, Opus 73, Second Movement"
INDEX 00 03:54:04
FILE "08 Johannes Brahms - Symphony No. 2 in D major, Opus 73, Second Movement.flac" WAVE
INDEX 01 00:00:00
TRACK 09 AUDIO
TITLE "Johann Sebastian Bach - Suite No. 1 in G major, Sarabande"
PERFORMER "Johann Sebastian Bach - Suite No. 1 in G major, Sarabande"
INDEX 00 09:52:23
FILE "09 Johann Sebastian Bach - Suite No. 1 in G major, Sarabande.flac" WAVE
INDEX 01 00:00:00
TRACK 10 AUDIO
TITLE "Benjamin Britten - Peter Grimes - Sea Interludes, (Sunday Morning)"
PERFORMER "Benjamin Britten - Peter Grimes - Sea Interludes, (Sunday Morning)"
INDEX 00 04:00:37
FILE "10 Benjamin Britten - Peter Grimes - Sea Interludes, (Sunday Morning).flac" WAVE
INDEX 01 00:00:00
TRACK 11 AUDIO
TITLE "Richard Wagner - Lohengrin, Prelude to Act 1"
PERFORMER "Richard Wagner - Lohengrin, Prelude to Act 1"
INDEX 00 03:57:11
FILE "11 Richard Wagner - Lohengrin, Prelude to Act 1.flac" WAVE
INDEX 01 00:00:00



Показать сообщения:    

Текущее время: 02-Дек 23:10

Часовой пояс: UTC + 3


Вы не можете начинать темы
Вы не можете отвечать на сообщения
Вы не можете редактировать свои сообщения
Вы не можете удалять свои сообщения
Вы не можете голосовать в опросах
Вы не можете прикреплять файлы к сообщениям
Вы не можете скачивать файлы