(Classical) In Classical Mood (Vol. 36) - Party Time - 1998, FLAC (tracks+.cue) lossless


 

[Цитировать]

In Classical Mood (Vol. 36) - Party Time
Жанр: Classical
Страна-производитель диска: United Kingdom
Год издания диска: 1998
Издатель (лейбл): International Masters Publishers
Номер по каталогу: L GBP 60 00 18 038
Аудиокодек: FLAC
Тип рипа: tracks+.cue
Битрейт аудио: lossless
Продолжительность: 01:07:49
Источник: скачано с
сайт-источник/ник/другое: thepiratebay.se
Наличие сканов в содержимом раздачи: нет
Треклист:
01 DDD Hans Christian Lumbye - Champagne Galop for orchestra (or piano), Opus 14 - Danish National Radio Symphony Orchestra Conducted by Gennady Rozhdestvensky [02:17]
02 DDD Frédéric Chopin - Waltz for piano No. 1 in E flat major, Op. 18, CT. 207, Grande Valse Brillante - Peter Katin, piano [05:37]
03 DDD Emmanuel Chabrier - Le roi malgré lui, opéra-comique in 3 acts (Fête polonaise) - Detroit Symphony Orchestra, Conducted by Neeme Järvi [06:49]
04 DDD Giuseppe Verdi - La Traviata, Brindisi - Peter Dvorsky, tenor; Lucia Aliberti, soprano; Fujiwara Opera Chorus; Tokyo Philharmonic Orchestra Conducted by Roberto Paternostro [03:00]
05 DDD Charles Gounod - Faust, opera (Ballet Music No. 1) - Budapest Philharmonic Orchestra, Conducted by Janos Sandor [02:36]
06 DDD Franz Joseph Haydn - Trumpet Concerto in E flat major, H. 7e/1 (3rd Movement) - John Wallace, trumpet; Philharmonia Orchestra, Conducted by Christopher Warren-Green [04:40]
07 DDD Wolfgang Amadeus Mozart - Don Giovanni, opera, K. 527 ("Finch" han dal vino) - Renato Bruson, baritone; NHK Chamber Soloists, Conducted by Roberto Paternostro [01:30]
08 DDD Ottorino Respighi - Suite for flute & strings, P. 57 (Badinage) - Fabio Fabbrizzi, flute; The Haydn Philharmonia, Conducted by Ezio Rojatti [05:07]
09 DDD Jacques Offenbach - La Grande-Duchesse de Gérolstein, operetta in 3 acts (Overture) - The Gulbenkian Orchestra Conducted by Michel Sweierczewksi [04:31]
10 DDD Johann Strauss Jr. - Die Fledermaus (The Bat), overture to the operetta (RV 503-1) - Johann Strauss Orchestra Vienna, Conducted by Joseph Francek [09:17]
11 DDD Edvard Grieg - Bryllupsdag på Troldhaugen (Wedding Day at Troldhaugen), lyric piece for piano, Op. 65/6 - Jenö Jandó, piano [05:45]
12 DDD Sergej Prokofjev - Symphony No. 1 in D Major, "Classical," Opus 25: Finale - Philharmonia Orchestra Conducted by Rudolf Barshai [04:07]
13 DDD Franz Lehár - Die lustige Witwe (The Merry Widow), operetta (O Vaterland) - Sandor Nemeth, baritone; Budapest Operetta Chorus and Orchestra Conducted by Lazslo Maklary [02:11]
14 ADD Antonin Dvorák - Carnival (Karneval), concert overture, B. 169 (Op. 92) - Royal Philharmonic Orchestra, Contucted by John Farrer [09:32]

Лог создания рипа

Exact Audio Copy V0.99 prebeta 5 from 4. May 2009
EAC extraction logfile from 17. February 2010, 18:44
In Classical Mood / Party Time
Used drive : TSSTcorpCDDVDW SH-S223F Adapter: 1 ID: 1
Read mode : Secure
Utilize accurate stream : Yes
Defeat audio cache : Yes
Make use of C2 pointers : No
Read offset correction : 6
Overread into Lead-In and Lead-Out : No
Fill up missing offset samples with silence : Yes
Delete leading and trailing silent blocks : No
Null samples used in CRC calculations : Yes
Used interface : Native Win32 interface for Win NT & 2000
Gap handling : Appended to previous track
Used output format : User Defined Encoder
Selected bitrate : 1024 kBit/s
Quality : High
Add ID3 tag : No
Command line compressor : C:\Program\FLAC\flac.exe
Additional command line options : -V -8 -T "artist=%a" -T "title=%t" -T "album=%g" -T "date=%y" -T "tracknumber=%n" -T "genre=%m" %s
TOC of the extracted CD
Track | Start | Length | Start sector | End sector
---------------------------------------------------------
1 | 0:00.00 | 2:21.04 | 0 | 10578
2 | 2:21.04 | 5:41.14 | 10579 | 36167
3 | 8:02.18 | 6:52.55 | 36168 | 67122
4 | 14:54.73 | 3:03.72 | 67123 | 80919
5 | 17:58.70 | 2:39.50 | 80920 | 92894
6 | 20:38.45 | 4:43.46 | 92895 | 114165
7 | 25:22.16 | 1:33.68 | 114166 | 121208
8 | 26:56.09 | 5:10.43 | 121209 | 144501
9 | 32:06.52 | 4:35.22 | 144502 | 165148
10 | 36:41.74 | 9:21.30 | 165149 | 207253
11 | 46:03.29 | 5:48.41 | 207254 | 233394
12 | 51:51.70 | 4:10.30 | 233395 | 252174
13 | 56:02.25 | 2:14.61 | 252175 | 262285
14 | 58:17.11 | 9:32.62 | 262286 | 305247
Track 1
Filename E:\rippat\Party Time\01 - Hans Christian Lumbye - Champagne Galop, Opus 14.wav
Pre-gap length 0:00:02.00
Peak level 100.0 %
Track quality 100.0 %
Copy CRC 778AF677
Cannot be verified as accurate (confidence 2) [C5C18BFA], AccurateRip returned [F413DE7C]
Copy OK
Track 2
Filename E:\rippat\Party Time\02 - Frйdйric Chopin - Waltz in E flat major, Opus 18, 'Grande Valse Brillante'.wav
Pre-gap length 0:00:03.61
Copy aborted
Track 3
Pre-gap length 0:00:03.60
Copy aborted
Track 4
Pre-gap length 0:00:03.61
Copy aborted
Track 5
Pre-gap length 0:00:03.62
Copy aborted
Track 6
Pre-gap length 0:00:03.62
Copy aborted
Track 7
Pre-gap length 0:00:03.62
Copy aborted
Track 8
Pre-gap length 0:00:03.61
Copy aborted
Track 9
Pre-gap length 0:00:03.62
Copy aborted
Track 10
Pre-gap length 0:00:03.60
Copy aborted
Track 11
Pre-gap length 0:00:03.62
Copy aborted
Track 12
Pre-gap length 0:00:03.62
Copy aborted
Track 13
Pre-gap length 0:00:03.61
Copy aborted
Track 14
Pre-gap length 0:00:03.62
Copy aborted
1 track(s) could not be verified as accurate
13 track(s) canceled
No tracks could be verified as accurate
There were errors
End of status report
------------------------------------------------------------
Exact Audio Copy V0.99 prebeta 5 from 4. May 2009
EAC extraction logfile from 17. February 2010, 19:20
In Classical Mood / Party Time
Used drive : TSSTcorpCDDVDW SH-S223F Adapter: 1 ID: 1
Read mode : Secure
Utilize accurate stream : Yes
Defeat audio cache : Yes
Make use of C2 pointers : No
Read offset correction : 6
Overread into Lead-In and Lead-Out : No
Fill up missing offset samples with silence : Yes
Delete leading and trailing silent blocks : No
Null samples used in CRC calculations : Yes
Used interface : Native Win32 interface for Win NT & 2000
Gap handling : Appended to previous track
Used output format : User Defined Encoder
Selected bitrate : 1024 kBit/s
Quality : High
Add ID3 tag : No
Command line compressor : C:\Program\FLAC\flac.exe
Additional command line options : -V -8 -T "artist=%a" -T "title=%t" -T "album=%g" -T "date=%y" -T "tracknumber=%n" -T "genre=%m" %s
TOC of the extracted CD
Track | Start | Length | Start sector | End sector
---------------------------------------------------------
1 | 0:00.00 | 2:21.04 | 0 | 10578
2 | 2:21.04 | 5:41.14 | 10579 | 36167
3 | 8:02.18 | 6:52.55 | 36168 | 67122
4 | 14:54.73 | 3:03.72 | 67123 | 80919
5 | 17:58.70 | 2:39.50 | 80920 | 92894
6 | 20:38.45 | 4:43.46 | 92895 | 114165
7 | 25:22.16 | 1:33.68 | 114166 | 121208
8 | 26:56.09 | 5:10.43 | 121209 | 144501
9 | 32:06.52 | 4:35.22 | 144502 | 165148
10 | 36:41.74 | 9:21.30 | 165149 | 207253
11 | 46:03.29 | 5:48.41 | 207254 | 233394
12 | 51:51.70 | 4:10.30 | 233395 | 252174
13 | 56:02.25 | 2:14.61 | 252175 | 262285
14 | 58:17.11 | 9:32.62 | 262286 | 305247
Track 1
Filename E:\rippat\Party Time\01 Hans Christian Lumbye - Champagne Galop, Opus 14.wav
Pre-gap length 0:00:02.00
Peak level 100.0 %
Track quality 100.0 %
Copy CRC 778AF677
Cannot be verified as accurate (confidence 2) [C5C18BFA], AccurateRip returned [F413DE7C]
Copy OK
Track 2
Filename E:\rippat\Party Time\02 Frйdйric Chopin - Waltz in E flat major, Opus 18, 'Grande Valse Brillante'.wav
Pre-gap length 0:00:03.61
Peak level 60.8 %
Track quality 100.0 %
Copy CRC B5A46417
Cannot be verified as accurate (confidence 2) [FC2AB15E], AccurateRip returned [B9B3318B]
Copy OK
Track 3
Filename E:\rippat\Party Time\03 Emmanuel Chabrier - Le Roi Malgrй Lui, 'Fкte Polonaise'.wav
Pre-gap length 0:00:03.60
Peak level 99.9 %
Track quality 99.9 %
Copy CRC 1ED94625
Cannot be verified as accurate (confidence 2) [8D4E2715], AccurateRip returned [3AF2DC8E]
Copy OK
Track 4
Filename E:\rippat\Party Time\04 Guiseppe Verdi - La Traviata, Brindisi.wav
Pre-gap length 0:00:03.61
Peak level 98.9 %
Track quality 99.9 %
Copy CRC DC487F3C
Cannot be verified as accurate (confidence 2) [6C2AB8C3], AccurateRip returned [D2C3C90E]
Copy OK
Track 5
Filename E:\rippat\Party Time\05 Charles Gounod - Faust, Ballet Music No. 1.wav
Pre-gap length 0:00:03.62
Peak level 97.8 %
Track quality 100.0 %
Copy CRC 616A6FAA
Cannot be verified as accurate (confidence 2) [C90C2759], AccurateRip returned [34211695]
Copy OK
Track 6
Filename E:\rippat\Party Time\06 Joseph Haydn - Trumpet Concerto in E flat mojor (Third Movement).wav
Pre-gap length 0:00:03.62
Peak level 98.4 %
Track quality 100.0 %
Copy CRC 656638C5
Cannot be verified as accurate (confidence 2) [DA35E92B], AccurateRip returned [4EB03A24]
Copy OK
Track 7
Filename E:\rippat\Party Time\07 Wolfgang Amadeus Mozart - Don Giovanni, K527; 'Finchґ han dal vino'.wav
Pre-gap length 0:00:03.62
Peak level 57.6 %
Track quality 100.0 %
Copy CRC 77B6C339
Cannot be verified as accurate (confidence 2) [D8CFAFBC], AccurateRip returned [2E00A9D5]
Copy OK
Track 8
Filename E:\rippat\Party Time\08 Ottorino Respighi - Suite for Strings and Flute, 'Badinage'.wav
Pre-gap length 0:00:03.61
Peak level 22.0 %
Track quality 100.0 %
Copy CRC BC760919
Cannot be verified as accurate (confidence 2) [AEB2C4BD], AccurateRip returned [7F3FB0F6]
Copy OK
Track 9
Filename E:\rippat\Party Time\09 Jaques Offenbach - La Grande-Duchesse de Gerolstein, Overture.wav
Pre-gap length 0:00:03.62
Peak level 58.9 %
Track quality 99.9 %
Copy CRC 009996BE
Cannot be verified as accurate (confidence 2) [C13144D6], AccurateRip returned [11A0E59C]
Copy OK
Track 10
Filename E:\rippat\Party Time\10 Johan Strauss II - Die Fledermaus, Overture.wav
Pre-gap length 0:00:03.60
Peak level 96.7 %
Track quality 100.0 %
Copy CRC 573DDD55
Cannot be verified as accurate (confidence 2) [71A5DE0E], AccurateRip returned [82173362]
Copy OK
Track 11
Filename E:\rippat\Party Time\11 Edvard Grieg - Wedding Day at Troldhaugen, Opus 65.wav
Pre-gap length 0:00:03.62
Peak level 98.5 %
Track quality 100.0 %
Copy CRC A0E4A3BF
Cannot be verified as accurate (confidence 2) [5B410406], AccurateRip returned [C6CDDC66]
Copy OK
Track 12
Filename E:\rippat\Party Time\12 Sergej Prokofjev - Symphony No. 1 in D major, 'Classical', Opus 25, Finale.wav
Pre-gap length 0:00:03.62
Peak level 41.7 %
Track quality 99.9 %
Copy CRC 89957561
Cannot be verified as accurate (confidence 2) [56071626], AccurateRip returned [34DAE3C9]
Copy OK
Track 13
Filename E:\rippat\Party Time\13 Franz Lehбr - The Merry Widow, 'O Vaterland'.wav
Pre-gap length 0:00:03.61
Peak level 98.3 %
Track quality 99.9 %
Copy CRC 6035D18E
Cannot be verified as accurate (confidence 2) [085A82FC], AccurateRip returned [BEDB464A]
Copy OK
Track 14
Filename E:\rippat\Party Time\14 Antonin Dvorбk - Carnival Overture, Opus 92.wav
Pre-gap length 0:00:03.62
Peak level 99.7 %
Track quality 99.9 %
Copy CRC 1A45B4AB
Cannot be verified as accurate (confidence 2) [5644581A], AccurateRip returned [C70FEC60]
Copy OK
No tracks could be verified as accurate
You may have a different pressing from the one(s) in the database
No errors occurred
End of status report

Содержание индексной карты (.CUE)

REM GENRE Classical
REM DATE 1999
REM DISCID BD0FE50E
REM COMMENT "ExactAudioCopy v0.99pb5"
PERFORMER "In Classical Mood"
TITLE "Party Time"
FILE "01 Hans Christian Lumbye - Champagne Galop, Opus 14.flac" WAVE
TRACK 01 AUDIO
TITLE "Hans Christian Lumbye - Champagne Galop, Opus 14"
PERFORMER "In Classical Mood"
INDEX 01 00:00:00
TRACK 02 AUDIO
TITLE "Frederic Chopin - Waltz in E flat major, Opus 18, 'Grande Valse Brillante'"
PERFORMER "In Classical Mood"
INDEX 00 02:17:33
FILE "02 Frederic Chopin - Waltz in E flat major, Opus 18, 'Grande Valse Brillante'.flac" WAVE
INDEX 01 00:00:00
TRACK 03 AUDIO
TITLE "Emmanuel Chabrier - Le Roi Malgre Lui/ 'Fete Polonaise'"
PERFORMER "In Classical Mood"
INDEX 00 05:37:44
FILE "03 Emmanuel Chabrier - Le Roi Malgre Lui, 'Fete Polonaise'.flac" WAVE
INDEX 01 00:00:00
TRACK 04 AUDIO
TITLE "Guiseppe Verdi - La Traviata, Brindisi"
PERFORMER "In Classical Mood"
INDEX 00 06:49:09
FILE "04 Guiseppe Verdi - La Traviata, Brindisi.flac" WAVE
INDEX 01 00:00:00
TRACK 05 AUDIO
TITLE "Charles Gounod - Faust, Ballet Music No. 1"
PERFORMER "In Classical Mood"
INDEX 00 03:00:25
FILE "05 Charles Gounod - Faust, Ballet Music No. 1.flac" WAVE
INDEX 01 00:00:00
TRACK 06 AUDIO
TITLE "Joseph Haydn - Trumpet Concerto in E flat mojor (Third Movement)"
PERFORMER "In Classical Mood"
INDEX 00 02:36:03
FILE "06 Joseph Haydn - Trumpet Concerto in E flat mojor (Third Movement).flac" WAVE
INDEX 01 00:00:00
TRACK 07 AUDIO
TITLE "Wolfgang Amadeus Mozart - Don Giovanni, K527; 'Finch' han dal vino'"
PERFORMER "In Classical Mood"
INDEX 00 04:39:74
FILE "07 Wolfgang Amadeus Mozart - Don Giovanni, K527; 'Finch' han dal vino'.flac" WAVE
INDEX 01 00:00:00
TRACK 08 AUDIO
TITLE "Ottorino Respighi - Suite for Strings and Flute, 'Badinage'"
PERFORMER "In Classical Mood"
INDEX 00 01:30:22
FILE "08 Ottorino Respighi - Suite for Strings and Flute, 'Badinage'.flac" WAVE
INDEX 01 00:00:00
TRACK 09 AUDIO
TITLE "Jaques Offenbach - La Grande-Duchesse de Gerolstein, Overture"
PERFORMER "In Classical Mood"
INDEX 00 05:06:71
FILE "09 Jaques Offenbach - La Grande-Duchesse de Gerolstein, Overture.flac" WAVE
INDEX 01 00:00:00
TRACK 10 AUDIO
TITLE "Johan Strauss II - Die Fledermaus, Overture"
PERFORMER "In Classical Mood"
INDEX 00 04:31:52
FILE "10 Johan Strauss II - Die Fledermaus, Overture.flac" WAVE
INDEX 01 00:00:00
TRACK 11 AUDIO
TITLE "Edvard Grieg - Wedding Day at Troldhaugen, Opus 65"
PERFORMER "In Classical Mood"
INDEX 00 09:17:58
FILE "11 Edvard Grieg - Wedding Day at Troldhaugen, Opus 65.flac" WAVE
INDEX 01 00:00:00
TRACK 12 AUDIO
TITLE "Sergej Prokofjev - Symphony No. 1 in D major, 'Classical', Opus 25, Finale"
PERFORMER "In Classical Mood"
INDEX 00 05:44:69
FILE "12 Sergej Prokofjev - Symphony No. 1 in D major, 'Classical', Opus 25, Finale.flac" WAVE
INDEX 01 00:00:00
TRACK 13 AUDIO
TITLE "Franz Lehar - The Merry Widow, 'O Vaterland'"
PERFORMER "In Classical Mood"
INDEX 00 04:06:59
FILE "13 Franz Lehar - The Merry Widow, 'O Vaterland'.flac" WAVE
INDEX 01 00:00:00
TRACK 14 AUDIO
TITLE "Antonin Dvorak - Carnival Overture, Opus 92"
PERFORMER "In Classical Mood"
INDEX 00 02:11:14
FILE "14 Antonin Dvorak - Carnival Overture, Opus 92.flac" WAVE
INDEX 01 00:00:00



Показать сообщения:    

Текущее время: 06-Дек 13:14

Часовой пояс: UTC + 3


Вы не можете начинать темы
Вы не можете отвечать на сообщения
Вы не можете редактировать свои сообщения
Вы не можете удалять свои сообщения
Вы не можете голосовать в опросах
Вы не можете прикреплять файлы к сообщениям
Вы не можете скачивать файлы